Вы используете незарегистрированную версию компонента "Вкладки"!

Поиск

(Avant-Garde, Free Improvisation, Chamber Jazz) [CD] Baloni (Joachim Badenhorst, Frantz Loriot, Pascal Niggenkemper) - Belleke - 2014, FLAC (tracks+.cue), lossless

(Avant-Garde, Free Improvisation, Chamber Jazz) [CD] Baloni (Joachim Badenhorst, Frantz Loriot, Pascal Niggenkemper) - Belleke - 2014, FLAC (tracks+.cue), lossless
Треклист:
Baloni / Belleke
Жанр: Avant-Garde, Free Improvisation, Chamber Jazz
Носитель: CD
Страна-производитель диска: Portugal
Год издания: 2014
Издатель (лейбл): Clean Feed
Номер по каталогу: CF305CD
Аудиокодек: FLAC (*.flac)
Тип рипа: tracks+.cue
Битрейт аудио: lossless
Продолжительность: 47:10
Источник (релизер): я
Наличие сканов в содержимом раздачи: да
Треклист:
01. Belleke (Pascal Niggenkemper) 3:57
02. Building Nothing Out of Something (Baloni) 3:53
03. Mon seul désir (Joachim Badenhorst) 6:20
04. Feuertreppe (Pascal Niggenkemper) 6:37
05. Turning Inwards, Like a Glove (Joachim Badenhorst) 4:06
06. Heaving Hearts (Baloni) 3:10
07. Forgetting (Pascal Niggenkemper) 2:51
08. Casse méditative (Baloni) 2:25
09. Snowflakes (Frantz Loriot) 5:19
10. What Grows Beneath (Baloni) 8:42
Recorded on May 31, 2012 at Loft, Cologne.
Joachim Badenhorst – Bass Clarinet, Clarinet and Tenor Sax
Frantz Loriot – Viola
Pascal Niggenkemper – Double Bass
 
Лог создания рипа
Exact Audio Copy V1.0 beta 3 from 29. August 2011
EAC extraction logfile from 31. July 2014, 13:40
Baloni / Belleke
Used drive : SlimtypeeNAU508 5 Adapter: 1 ID: 0
Read mode : Secure
Utilize accurate stream : Yes
Defeat audio cache : Yes
Make use of C2 pointers : No
Read offset correction : 6
Overread into Lead-In and Lead-Out : No
Fill up missing offset samples with silence : Yes
Delete leading and trailing silent blocks : No
Null samples used in CRC calculations : Yes
Used interface : Native Win32 interface for Win NT & 2000
Gap handling : Appended to previous track
Used output format : User Defined Encoder
Selected bitrate : 768 kBit/s
Quality : High
Add ID3 tag : No
Command line compressor : C:\Program Files (x86)\Exact Audio Copy\Flac\flac.exe
Additional command line options : -8 -V -T "ARTIST=%artist%" -T "TITLE=%title%" -T "ALBUM=%albumtitle%" -T "DATE=%year%" -T "TRACKNUMBER=%tracknr%" -T "TOTALTRACKS=%numtracks%" -T "GENRE=%genre%" -T "ALBUMARTIST=%albumartist%" -T "ALBUM ARTIST=%albumartist%" -T "COMMENT=EAC Secure Mode, Test & Copy, AccurateRip, FLAC -8" %source%
TOC of the extracted CD
Track | Start | Length | Start sector | End sector
---------------------------------------------------------
1 | 0:00.00 | 3:56.47 | 0 | 17746
2 | 3:56.47 | 3:53.14 | 17747 | 35235
3 | 7:49.61 | 6:19.68 | 35236 | 63728
4 | 14:09.54 | 6:36.42 | 63729 | 93470
5 | 20:46.21 | 4:06.26 | 93471 | 111946
6 | 24:52.47 | 3:10.36 | 111947 | 126232
7 | 28:03.08 | 2:51.20 | 126233 | 139077
8 | 30:54.28 | 2:24.73 | 139078 | 149950
9 | 33:19.26 | 5:18.54 | 149951 | 173854
10 | 38:38.05 | 8:42.14 | 173855 | 213018
Track 1
Filename C:\EAC rips\01 - Belleke.wav
Pre-gap length 0:00:02.00
Peak level 99.9 %
Extraction speed 2.3 X
Track quality 100.0 %
Test CRC DC439963
Copy CRC DC439963
Track not present in AccurateRip database
Copy OK
Track 2
Filename C:\EAC rips\02 - Building Nothing Out of Something.wav
Pre-gap length 0:00:03.00
Peak level 100.0 %
Extraction speed 2.5 X
Track quality 100.0 %
Test CRC 0E5BF622
Copy CRC 0E5BF622
Track not present in AccurateRip database
Copy OK
Track 3
Filename C:\EAC rips\03 - Mon seul désir.wav
Pre-gap length 0:00:02.10
Peak level 100.0 %
Extraction speed 2.9 X
Track quality 100.0 %
Test CRC A3143884
Copy CRC A3143884
Track not present in AccurateRip database
Copy OK
Track 4
Filename C:\EAC rips\04 - Feuertreppe.wav
Pre-gap length 0:00:03.00
Peak level 100.0 %
Extraction speed 3.2 X
Track quality 100.0 %
Test CRC B0879E87
Copy CRC B0879E87
Track not present in AccurateRip database
Copy OK
Track 5
Filename C:\EAC rips\05 - Turning Inwards, Like a Glove.wav
Pre-gap length 0:00:04.00
Peak level 100.0 %
Extraction speed 2.7 X
Track quality 99.9 %
Test CRC E0353A3C
Copy CRC E0353A3C
Track not present in AccurateRip database
Copy OK
Track 6
Filename C:\EAC rips\06 - Heaving Hearts.wav
Pre-gap length 0:00:04.00
Peak level 100.0 %
Extraction speed 3.3 X
Track quality 100.0 %
Test CRC 28AD0BB2
Copy CRC 28AD0BB2
Track not present in AccurateRip database
Copy OK
Track 7
Filename C:\EAC rips\07 - Forgetting.wav
Pre-gap length 0:00:04.00
Peak level 100.0 %
Extraction speed 3.3 X
Track quality 100.0 %
Test CRC CF0E42F6
Copy CRC CF0E42F6
Track not present in AccurateRip database
Copy OK
Track 8
Filename C:\EAC rips\08 - Casse méditative.wav
Pre-gap length 0:00:02.00
Peak level 92.1 %
Extraction speed 3.3 X
Track quality 100.0 %
Test CRC 670FF333
Copy CRC 670FF333
Track not present in AccurateRip database
Copy OK
Track 9
Filename C:\EAC rips\09 - Snowflakes.wav
Pre-gap length 0:00:02.00
Peak level 89.1 %
Extraction speed 3.4 X
Track quality 99.9 %
Test CRC AC26B846
Copy CRC AC26B846
Track not present in AccurateRip database
Copy OK
Track 10
Filename C:\EAC rips\10 - What Grows Beneath.wav
Pre-gap length 0:00:03.00
Peak level 99.9 %
Extraction speed 4.3 X
Track quality 100.0 %
Test CRC 4940BB4A
Copy CRC 4940BB4A
Track not present in AccurateRip database
Copy OK
None of the tracks are present in the AccurateRip database
No errors occurred
End of status report
---- CUETools DB Plugin V2.1.4
[CTDB TOCID: V39UYJnbgUy7SgdSLWzmPPNp8sI-] disk not present in database
Submit result: V39UYJnbgUy7SgdSLWzmPPNp8sI- has been uploaded
==== Log checksum A5180D7FB1C660EDDB47712834EDD1BE04B18DCE670F1103950FA39C4B318042 ====
 
Содержание индексной карты (.CUE)
REM GENRE "Clean Feed CF305CD"
REM DATE 2014
REM DISCID 7C0B180A
REM COMMENT "ExactAudioCopy v1.0b3"
PERFORMER "Baloni"
TITLE "Belleke"
FILE "01 - Belleke.wav" WAVE
TRACK 01 AUDIO
TITLE "Belleke"
PERFORMER "Baloni"
FLAGS DCP
INDEX 01 00:00:00
TRACK 02 AUDIO
TITLE "Building Nothing Out of Something"
PERFORMER "Baloni"
FLAGS DCP
INDEX 00 03:53:47
FILE "02 - Building Nothing Out of Something.wav" WAVE
INDEX 01 00:00:00
TRACK 03 AUDIO
TITLE "Mon seul désir"
PERFORMER "Baloni"
FLAGS DCP
INDEX 00 03:51:04
FILE "03 - Mon seul désir.wav" WAVE
INDEX 01 00:00:00
TRACK 04 AUDIO
TITLE "Feuertreppe"
PERFORMER "Baloni"
FLAGS DCP
INDEX 00 06:16:68
FILE "04 - Feuertreppe.wav" WAVE
INDEX 01 00:00:00
TRACK 05 AUDIO
TITLE "Turning Inwards, Like a Glove"
PERFORMER "Baloni"
FLAGS DCP
INDEX 00 06:32:42
FILE "05 - Turning Inwards, Like a Glove.wav" WAVE
INDEX 01 00:00:00
TRACK 06 AUDIO
TITLE "Heaving Hearts"
PERFORMER "Baloni"
FLAGS DCP
INDEX 00 04:02:26
FILE "06 - Heaving Hearts.wav" WAVE
INDEX 01 00:00:00
TRACK 07 AUDIO
TITLE "Forgetting"
PERFORMER "Baloni"
FLAGS DCP
INDEX 00 03:06:36
FILE "07 - Forgetting.wav" WAVE
INDEX 01 00:00:00
TRACK 08 AUDIO
TITLE "Casse méditative"
PERFORMER "Baloni"
FLAGS DCP
INDEX 00 02:49:20
FILE "08 - Casse méditative.wav" WAVE
INDEX 01 00:00:00
TRACK 09 AUDIO
TITLE "Snowflakes"
PERFORMER "Baloni"
FLAGS DCP
INDEX 00 02:22:73
FILE "09 - Snowflakes.wav" WAVE
INDEX 01 00:00:00
TRACK 10 AUDIO
TITLE "What Grows Beneath"
PERFORMER "Baloni"
FLAGS DCP
INDEX 00 05:15:54
FILE "10 - What Grows Beneath.wav" WAVE
INDEX 01 00:00:00
По всем вопросам пишите личное сообщение пользователю M0p94ok.
04:13
165
Нет комментариев. Ваш будет первым!