Вы используете незарегистрированную версию компонента "Вкладки"!

Поиск

(Free Jazz, Contemporary Jazz) [CD] Adam Lane's Full Throttle Orchestra - Live In Ljubljana - 2014, APE (image+.cue), lossless

(Free Jazz, Contemporary Jazz) [CD] Adam Lane's Full Throttle Orchestra - Live In Ljubljana - 2014, APE (image+.cue), lossless
Треклист:
Adam Lane's Full Throttle Orchestra / Live In Ljubljana
Жанр: Free Jazz, Contemporary Jazz
Носитель: CD
Страна-производитель диска: Portugal
Год издания: 2014
Издатель (лейбл): Clean Feed
Номер по каталогу: CF 307
Аудиокодек: APE (*.ape)
Тип рипа: image+.cue
Битрейт аудио: lossless
Продолжительность: 75:28
Источник (релизер): Я
Наличие сканов в содержимом раздачи: нет
Треклист:
1. Power Lines/Feeling Blue-ish 14:51
2. Empire Of Music (The One) 12:58
3. Sanctum 13:26
4. Multiply Then Divide 7:06
5. Ashcan Rantings 12:08
6. Power Lines/Blues For Eddie 14:59
 
Лог создания рипа
Exact Audio Copy V0.99 prebeta 5 from 4. May 2009
Отчёт EAC об извлечении, выполненном 29. августа 2014, 16:59
Adam Lane Full Throttle Orchestra / Live In Ljubljana
Дисковод: TSSTcorpCDRWDVD TSL462D Adapter: 2 ID: 0
Режим чтения : Достоверность
Использование точного потока : Да
Отключение кэша аудио : Да
Использование указателей C2 : Нет
Коррекция смещения при чтении : 6
Способность читать области Lead-in и Lead-out : Нет
Заполнение пропущенных сэмплов тишиной : Да
Удаление блоков с тишиной в начале и конце : Нет
При вычислениях CRC использовались нулевые сэмплы : Да
Интерфейс : Встроенный Win32-интерфейс для Win NT/2000
Выходной формат : Внутренние WAV-операции
Формат сэмплов : 44.100 Гц; 16 бит; стерео
TOC извлечённого CD
Трек | Старт | Длительность | Начальный сектор | Конечный сектор
---------------------------------------------------------------------
1 | 0:00.00 | 14:50.47 | 0 | 66796
2 | 14:50.47 | 12:58.31 | 66797 | 125177
3 | 27:49.03 | 13:26.17 | 125178 | 185644
4 | 41:15.20 | 7:05.71 | 185645 | 217590
5 | 48:21.16 | 12:07.54 | 217591 | 272169
6 | 60:28.70 | 14:59.26 | 272170 | 339620
Характеристики диапазона извлечения и сообщения об ошибках
Выбранный диапазон
Имя файла D:\Music\Adam Lanes Full Throttle_Orchestra_Live in Ljubljana\Adam Lane Full Throttle Orchestra - Live In Ljubljana.wav
Пиковый уровень 100.0 %
Качество диапазона 100.0 %
CRC теста 1F6059C3
CRC копии 1F6059C3
Копирование... OK
Ошибок не произошло
AccurateRip: сводка
Трек 1 нет в базе данных
Трек 2 нет в базе данных
Трек 3 нет в базе данных
Трек 4 нет в базе данных
Трек 5 нет в базе данных
Трек 6 нет в базе данных
Ни одного трека нет в базе AccurateRip
Конец отчёта
 
Содержание индексной карты (.CUE)
REM DISCID 5211B006
REM COMMENT "ExactAudioCopy v0.99pb5"
PERFORMER "Adam Lane Full Throttle Orchestra "
TITLE "Live In Ljubljana "
FILE "Adam Lane Full Throttle Orchestra - Live In Ljubljana.wav" WAVE
TRACK 01 AUDIO
TITLE "1. Power Lines/Feeling Blue-ish"
PERFORMER "Adam Lane Full Throttle Orchestra "
INDEX 01 00:00:00
TRACK 02 AUDIO
TITLE "2. Empire Of Music (The One)"
PERFORMER "Adam Lane Full Throttle Orchestra "
INDEX 01 14:50:47
TRACK 03 AUDIO
TITLE "3. Sanctum"
PERFORMER "Adam Lane Full Throttle Orchestra "
INDEX 01 27:49:03
TRACK 04 AUDIO
TITLE "4. Multiply Then Divide "
PERFORMER "Adam Lane Full Throttle Orchestra "
INDEX 01 41:15:20
TRACK 05 AUDIO
TITLE "5. Ashcan Rantings"
PERFORMER "Adam Lane Full Throttle Orchestra "
INDEX 01 48:21:16
TRACK 06 AUDIO
TITLE "6. Power Lines/Blues For Eddie"
PERFORMER "Adam Lane Full Throttle Orchestra "
INDEX 01 60:28:70
 
Состав
Nate Wooley-trumpet
Susana Santos Silva-trumpet
Reut Regev-trombone
David Bindman-tenor saxophone, soprano saxophone
Avram Fefer-alto saxophone
Matt Bauder-baritone saxophone
Adam Lane-bass
Igal Foni-drums
По всем вопросам пишите личное сообщение пользователю M0p94ok.
04:14
176
Нет комментариев. Ваш будет первым!