Вы используете незарегистрированную версию компонента "Вкладки"!

Поиск

(Free Jazz) [CD] Еric Rеvis Quаrtet - In Mеmory of Things Yеt Sеen - 2014, FLAC (tracks+.cue), lossless

(Free Jazz) [CD] Еric Rеvis Quаrtet - In Mеmory of Things Yеt Sеen - 2014, FLAC (tracks+.cue), lossless
Треклист:
Eric Revis Quartet • In Memory of Things Yet Seen
Жанр: Free Jazz
Носитель: CD
Страна-производитель диска: Portugal
Год издания: 2014
Издатель (лейбл): Clean Feed
Номер по каталогу: CF294CD
Страна: US
Аудиокодек: FLAC (*.flac)
Тип рипа: tracks+.cue
Битрейт аудио: lossless
Продолжительность: 00:57:16
Источник: losslessinside.com
Наличие сканов: нет

01. The Tulpa Chronicles (Pt.I...Proem) (2:58)
02. Hits (5:25)
03. Son Seals (5:56)
04. Somethin's Cookin (7:01)
05. Unknown (6:18)
06. The Tulpa Chronicles (Pt.II...Ephemeral Canvas) (2:02)
07. 3 Voices (3:29)
08. A Lesson Earned (2:40)
09. The Shadow World (7:26)
10. Hold My Snow Cone (4:35)
11. FreeB (2:37)
12. The Tulpa Chronicles (Pt.III...For Cordel Boogie Mosson) (4:41)
13. If You're Lonesome,You're Never Alone (2:09)
 
Отчёты
 
Лог создания рипа
Exact Audio Copy V1.0 beta 3 from 29. August 2011
EAC extraction logfile from 21. August 2014, 19:23
Eric Revis / In Memory of Things Yet Seen
Used drive : PHILIPS SPD3400CC Adapter: 0 ID: 0
Read mode : Secure
Utilize accurate stream : Yes
Defeat audio cache : Yes
Make use of C2 pointers : No
Read offset correction : 6
Overread into Lead-In and Lead-Out : No
Fill up missing offset samples with silence : Yes
Delete leading and trailing silent blocks : No
Null samples used in CRC calculations : Yes
Used interface : Native Win32 interface for Win NT & 2000
Gap handling : Appended to previous track
Used output format : User Defined Encoder
Selected bitrate : 1024 kBit/s
Quality : High
Add ID3 tag : No
Command line compressor : C:\Program Files (x86)\Exact Audio Copy\FLAC\FLAC.EXE
Additional command line options : -8 -V -T "ARTIST=%artist%" -T "TITLE=%title%" -T "ALBUM=%albumtitle%" -T "DATE=%year%" -T "TRACKNUMBER=%tracknr%" -T "TOTALTRACKS=%numtracks%" -T "GENRE=%genre%" -T "ALBUM ARTIST=%albumartist%" -T "ALBUMARTIST=%albumartist%" -T "COMMENT=EAC V1.0 beta 3, Secure Mode, Test & Copy, AccurateRip, FLAC -8" %source%
TOC of the extracted CD
Track | Start | Length | Start sector | End sector
---------------------------------------------------------
1 | 0:00.00 | 2:58.04 | 0 | 13353
2 | 2:58.04 | 5:24.43 | 13354 | 37696
3 | 8:22.47 | 5:55.51 | 37697 | 64372
4 | 14:18.23 | 7:00.38 | 64373 | 95910
5 | 21:18.61 | 6:18.32 | 95911 | 124292
6 | 27:37.18 | 2:01.47 | 124293 | 133414
7 | 29:38.65 | 3:29.05 | 133415 | 149094
8 | 33:07.70 | 2:40.11 | 149095 | 161105
9 | 35:48.06 | 7:26.18 | 161106 | 194573
10 | 43:14.24 | 4:34.54 | 194574 | 215177
11 | 47:49.03 | 2:36.65 | 215178 | 226942
12 | 50:25.68 | 4:41.33 | 226943 | 248050
13 | 55:07.26 | 2:08.49 | 248051 | 257699
Track 1
Filename C:\Users\Maison\Downloads\Rips\01 - The Tulpa Chronicles (Pt.I...Proem).wav
Pre-gap length 0:00:02.00
Peak level 98.8 %
Extraction speed 1.9 X
Track quality 100.0 %
Test CRC 5DF6FB92
Copy CRC 5DF6FB92
Accurately ripped (confidence 1) [08BF5437] (AR v2)
Copy OK
Track 2
Filename C:\Users\Maison\Downloads\Rips\02 - Hits.wav
Pre-gap length 0:00:01.37
Peak level 98.9 %
Extraction speed 2.2 X
Track quality 100.0 %
Test CRC E6D4403F
Copy CRC E6D4403F
Accurately ripped (confidence 1) [F6757075] (AR v2)
Copy OK
Track 3
Filename C:\Users\Maison\Downloads\Rips\03 - Son Seals.wav
Pre-gap length 0:00:02.23
Peak level 98.9 %
Extraction speed 2.5 X
Track quality 100.0 %
Test CRC 770BC318
Copy CRC 770BC318
Accurately ripped (confidence 1) [CEB125CD] (AR v2)
Copy OK
Track 4
Filename C:\Users\Maison\Downloads\Rips\04 - Somethin's Cookin.wav
Pre-gap length 0:00:02.10
Peak level 98.8 %
Extraction speed 2.8 X
Track quality 100.0 %
Test CRC 63D700A7
Copy CRC 63D700A7
Accurately ripped (confidence 1) [751A5637] (AR v2)
Copy OK
Track 5
Filename C:\Users\Maison\Downloads\Rips\05 - Unknown.wav
Pre-gap length 0:00:02.06
Peak level 98.8 %
Extraction speed 3.0 X
Track quality 100.0 %
Test CRC 84D21002
Copy CRC 84D21002
Accurately ripped (confidence 1) [78116A48] (AR v2)
Copy OK
Track 6
Filename C:\Users\Maison\Downloads\Rips\06 - The Tulpa Chronicles (Pt.II...Ephemeral Canvas).wav
Pre-gap length 0:00:02.12
Peak level 98.9 %
Extraction speed 2.6 X
Track quality 100.0 %
Test CRC 35BC12D5
Copy CRC 35BC12D5
Accurately ripped (confidence 1) [0CB00F51] (AR v2)
Copy OK
Track 7
Filename C:\Users\Maison\Downloads\Rips\07 - 3 Voices.wav
Pre-gap length 0:00:02.40
Peak level 85.9 %
Extraction speed 3.0 X
Track quality 100.0 %
Test CRC 68CD335F
Copy CRC 68CD335F
Accurately ripped (confidence 1) [3FEA9FEB] (AR v2)
Copy OK
Track 8
Filename C:\Users\Maison\Downloads\Rips\08 - A Lesson Earned.wav
Pre-gap length 0:00:02.24
Peak level 98.8 %
Extraction speed 2.9 X
Track quality 100.0 %
Test CRC 8C615ED8
Copy CRC 8C615ED8
Accurately ripped (confidence 1) [D69F5112] (AR v2)
Copy OK
Track 9
Filename C:\Users\Maison\Downloads\Rips\09 - The Shadow World.wav
Pre-gap length 0:00:02.27
Peak level 98.9 %
Extraction speed 3.5 X
Track quality 100.0 %
Test CRC 7742DAD7
Copy CRC 7742DAD7
Accurately ripped (confidence 1) [D0069D7E] (AR v2)
Copy OK
Track 10
Filename C:\Users\Maison\Downloads\Rips\10 - Hold My Snow Cone.wav
Pre-gap length 0:00:02.06
Peak level 98.8 %
Extraction speed 3.5 X
Track quality 100.0 %
Test CRC 6C63DC1E
Copy CRC 6C63DC1E
Accurately ripped (confidence 1) [1A0C5612] (AR v2)
Copy OK
Track 11
Filename C:\Users\Maison\Downloads\Rips\11 - FreeB.wav
Pre-gap length 0:00:02.02
Peak level 98.8 %
Extraction speed 3.3 X
Track quality 100.0 %
Test CRC 90A37A4E
Copy CRC 90A37A4E
Accurately ripped (confidence 1) [1D5DBEEE] (AR v2)
Copy OK
Track 12
Filename C:\Users\Maison\Downloads\Rips\12 - The Tulpa Chronicles (Pt.III...For Cordel Boogie Mosson).wav
Pre-gap length 0:00:02.05
Peak level 98.8 %
Extraction speed 3.7 X
Track quality 100.0 %
Test CRC 7B89CA27
Copy CRC 7B89CA27
Accurately ripped (confidence 1) [4A2A09B8] (AR v2)
Copy OK
Track 13
Filename C:\Users\Maison\Downloads\Rips\13 - If You're Lonesome,You're Never Alone.wav
Pre-gap length 0:00:02.61
Peak level 98.8 %
Extraction speed 3.2 X
Track quality 100.0 %
Test CRC 53F00617
Copy CRC 53F00617
Accurately ripped (confidence 1) [561A6B30] (AR v2)
Copy OK
All tracks accurately ripped
No errors occurred
End of status report
==== Log checksum 2B38FB4A988861109C255F0DA5CCF48E6A29671E8D96C1FFC231458E64BA26A4 ====
 
Индексная карта (.CUE)
REM GENRE Jazz
REM DATE 2014
REM DISCID B80D6C0D
REM COMMENT "ExactAudioCopy v1.0b3"
CATALOG 5609063002942
PERFORMER "Eric Revis Quartet"
TITLE "In Memory of Things Yet Seen"
FILE "01 - The Tulpa Chronicles (Pt.I...Proem).wav" WAVE
TRACK 01 AUDIO
TITLE "The Tulpa Chronicles (Pt.I...Proem)"
PERFORMER "Eric Revis"
ISRC PTNF11409015
INDEX 01 00:00:00
TRACK 02 AUDIO
TITLE "Hits"
PERFORMER "Eric Revis"
ISRC PTNF11409016
INDEX 00 02:56:42
FILE "02 - Hits.wav" WAVE
INDEX 01 00:00:00
TRACK 03 AUDIO
TITLE "Son Seals"
PERFORMER "Eric Revis"
ISRC PTNF11409017
INDEX 00 05:22:20
FILE "03 - Son Seals.wav" WAVE
INDEX 01 00:00:00
TRACK 04 AUDIO
TITLE "Somethin's Cookin"
PERFORMER "Eric Revis"
ISRC PTNF11409018
INDEX 00 05:53:41
FILE "04 - Somethin's Cookin.wav" WAVE
INDEX 01 00:00:00
TRACK 05 AUDIO
TITLE "Unknown"
PERFORMER "Eric Revis"
ISRC PTNF11409019
INDEX 00 06:58:32
FILE "05 - Unknown.wav" WAVE
INDEX 01 00:00:00
TRACK 06 AUDIO
TITLE "The Tulpa Chronicles (Pt.II...Ephemeral Canvas)"
PERFORMER "Eric Revis"
ISRC PTNF11409020
INDEX 00 06:16:20
FILE "06 - The Tulpa Chronicles (Pt.II...Ephemeral Canvas).wav" WAVE
INDEX 01 00:00:00
TRACK 07 AUDIO
TITLE "3 Voices"
PERFORMER "Eric Revis"
ISRC PTNF11409021
INDEX 00 01:59:07
FILE "07 - 3 Voices.wav" WAVE
INDEX 01 00:00:00
TRACK 08 AUDIO
TITLE "A Lesson Earned"
PERFORMER "Eric Revis"
ISRC PTNF11409022
INDEX 00 03:26:56
FILE "08 - A Lesson Earned.wav" WAVE
INDEX 01 00:00:00
TRACK 09 AUDIO
TITLE "The Shadow World"
PERFORMER "Eric Revis"
ISRC PTNF11409023
INDEX 00 02:37:59
FILE "09 - The Shadow World.wav" WAVE
INDEX 01 00:00:00
TRACK 10 AUDIO
TITLE "Hold My Snow Cone"
PERFORMER "Eric Revis"
ISRC PTNF11409024
INDEX 00 07:24:12
FILE "10 - Hold My Snow Cone.wav" WAVE
INDEX 01 00:00:00
TRACK 11 AUDIO
TITLE "FreeB"
PERFORMER "Eric Revis"
ISRC PTNF11409025
INDEX 00 04:32:52
FILE "11 - FreeB.wav" WAVE
INDEX 01 00:00:00
TRACK 12 AUDIO
TITLE "The Tulpa Chronicles (Pt.III...For Cordel Boogie Mosson)"
PERFORMER "Eric Revis"
ISRC PTNF11409026
INDEX 00 02:34:60
FILE "12 - The Tulpa Chronicles (Pt.III...For Cordel Boogie Mosson).wav" WAVE
INDEX 01 00:00:00
TRACK 13 AUDIO
TITLE "If You're Lonesome,You're Never Alone"
PERFORMER "Eric Revis"
ISRC PTNF11409027
INDEX 00 04:38:47
FILE "13 - If You're Lonesome,You're Never Alone.wav" WAVE
INDEX 01 00:00:00
 
Лог проверки качества
-----------------------
DON'T MODIFY THIS FILE
-----------------------
PERFORMER: auCDtect Task Manager, ver. 1.6.0 RC1 build 1.6.0.1
Copyright (c) 2008-2010 y-soft. All rights reserved
http://y-soft.org
ANALYZER: auCDtect: CD records authenticity detector, version 0.8.2
Copyright (c) 2004 Oleg Berngardt. All rights reserved.
Copyright (c) 2004 Alexander Djourik. All rights reserved.
FILE: 13 - If You're Lonesome,You're Never Alone.flac
Size: 13212791 Hash: 5222E0B138326B6766FD58D3EA64530E Accuracy: -m0
Conclusion: CDDA 100%
Signature: 425DE326446091186534603FED018D0F7F6794BA
FILE: 12 - The Tulpa Chronicles (Pt.III...For Cordel Boogie Mosson).flac
Size: 25827623 Hash: 02ECF0E8FEFEF31339E827C6D0A8E10A Accuracy: -m0
Conclusion: CDDA 100%
Signature: 2DA83E2FFC58C23B22FE323691FFE6B34AFECD44
FILE: 11 - FreeB.flac
Size: 15602536 Hash: CE654805C0B7EEA51D6344A2C33F9A95 Accuracy: -m0
Conclusion: CDDA 100%
Signature: AF434F5C9DE3A174315646FFB4FBF5793A1A4171
FILE: 10 - Hold My Snow Cone.flac
Size: 24657387 Hash: DB02FAEF8E1BEBF8A0EBB9B4104B42EC Accuracy: -m0
Conclusion: CDDA 100%
Signature: BD36D1653D72C3604FC748E1F544BE5A71D22CB8
FILE: 09 - The Shadow World.flac
Size: 49958176 Hash: 63F3109D3C9F6D7FD6A8037819570498 Accuracy: -m0
Conclusion: CDDA 99%
Signature: 4704B45003AF9A54C77883F39DF790356F0DD947
FILE: 08 - A Lesson Earned.flac
Size: 16551040 Hash: 00CE0AF433F9A3C94B99ADF5B5FC05FB Accuracy: -m0
Conclusion: CDDA 100%
Signature: 71EF30939FA6DD8942369DB1AE0D1EE280F94926
FILE: 07 - 3 Voices.flac
Size: 18893590 Hash: 35CB48CAC336FEB2EB749CA3B4774D43 Accuracy: -m0
Conclusion: CDDA 100%
Signature: F97EA5D097E91B879AC31D890F7FCEA756760514
FILE: 06 - The Tulpa Chronicles (Pt.II...Ephemeral Canvas).flac
Size: 11227090 Hash: 76EAC39BFE4A022452B6597AE6D51C38 Accuracy: -m0
Conclusion: CDDA 100%
Signature: D3434831BF7ACD65C319B2F9F623F02D7F2F12D5
FILE: 05 - Unknown.flac
Size: 43604268 Hash: 18694D7A3E358C90CA231E1A23CBDC48 Accuracy: -m0
Conclusion: CDDA 100%
Signature: 84C2A547934EFE4A005C1FAF52F4692ADF96B057
FILE: 04 - Somethin's Cookin.flac
Size: 44958290 Hash: E1767AAF89F3FFB20D0B3B4615FBFD9C Accuracy: -m0
Conclusion: CDDA 100%
Signature: E15D07DAB93D437F25CC5CDEED71C451DA02A3A7
FILE: 03 - Son Seals.flac
Size: 38933728 Hash: 876818E225A9018FE973A458505192EB Accuracy: -m0
Conclusion: CDDA 100%
Signature: 8E2DA843377BC9358444AC57E0D429AA9DD14255
FILE: 02 - Hits.flac
Size: 36700873 Hash: A47EEDFFC2146DA97672892EF72879B5 Accuracy: -m0
Conclusion: CDDA 100%
Signature: 06DB523ADFCA4224EB49E0784DA79FB52CA723A5
FILE: 01 - The Tulpa Chronicles (Pt.I...Proem).flac
Size: 14346181 Hash: F494C3DB5476B41832BBA039C6BC5D4F Accuracy: -m0
Conclusion: CDDA 100%
Signature: 1021E4BC9D469C3E6B1B3B3F1369DB9834F452C7
 
Доп. информация
Релиз полностью готов к воспроизведению в аудиоплеере (я ориентировался на foobar2000)При скачивании, если необходимо, переименуйте папку, в которой будет находиться альбомБольшая просьба к скачавшим поддерживать раздачу! Помогайте другим, ведь вам тоже может понадобиться помощь!Не забываем говорить "Спасибо"!Комментарии приветствуются!

По всем вопросам пишите личное сообщение пользователю M0p94ok.
04:13
145
Нет комментариев. Ваш будет первым!