Вы используете незарегистрированную версию компонента "Вкладки"!

Поиск

(Avant-Garde, Free Improvisation) [CD] Franz Hautzinger, Julo Fujak, Zsolt Sörés (Sores) - Live in Brussels - 2013, FLAC (tracks+.cue), lossless

(Avant-Garde, Free Improvisation) [CD] Franz Hautzinger, Julo Fujak, Zsolt Sörés (Sores) - Live in Brussels - 2013, FLAC (tracks+.cue), lossless
Треклист:
Hautzinger, Fujak, Sörés / Live in Brussels
Жанр: Avant-Garde, Free Improvisation
Носитель: CD
Страна-производитель диска (релиза): Slovakia
Год издания: 2013
Издатель (лейбл): Hevhetia
Номер по каталогу: EH 0040-2-331
Аудиокодек: FLAC (*.flac)
Тип рипа: tracks+.cue
Битрейт аудио: lossless
Продолжительность: 47:47
Источник (релизер): я
Наличие сканов в содержимом раздачи: нет
Треклист:
1. Part I (18:34)
2. Part II (7:35)
3. Part III (21:38)
Recorded live at Studio Odeon 120, Brussels on November 6, 2011.
Franz Hautzinger – Quarter Tone Trumpet
Julo Fujak – Semi-Prepared Piano, Prepared Bass Guitar, Sonic Processor, Toys
Zsolt Sörés – Live Electronics, Viola, Sonic Objects
 
Лог создания рипа
Exact Audio Copy V1.0 beta 3 from 29. August 2011
EAC extraction logfile from 12. December 2014, 13:44
Hautzinger, Fujak, Sörés / Live in Brussels
Used drive : SlimtypeeNAU508 5 Adapter: 1 ID: 0
Read mode : Secure
Utilize accurate stream : Yes
Defeat audio cache : Yes
Make use of C2 pointers : No
Read offset correction : 6
Overread into Lead-In and Lead-Out : No
Fill up missing offset samples with silence : Yes
Delete leading and trailing silent blocks : No
Null samples used in CRC calculations : Yes
Used interface : Native Win32 interface for Win NT & 2000
Gap handling : Appended to previous track
Used output format : User Defined Encoder
Selected bitrate : 768 kBit/s
Quality : High
Add ID3 tag : No
Command line compressor : C:\Program Files (x86)\Exact Audio Copy\Flac\flac.exe
Additional command line options : -8 -V -T "ARTIST=%artist%" -T "TITLE=%title%" -T "ALBUM=%albumtitle%" -T "DATE=%year%" -T "TRACKNUMBER=%tracknr%" -T "TOTALTRACKS=%numtracks%" -T "GENRE=%genre%" -T "ALBUMARTIST=%albumartist%" -T "ALBUM ARTIST=%albumartist%" -T "COMMENT=EAC Secure Mode, Test & Copy, AccurateRip, FLAC -8" %source%
TOC of the extracted CD
Track | Start | Length | Start sector | End sector
---------------------------------------------------------
1 | 0:00.00 | 18:34.00 | 0 | 83549
2 | 18:34.00 | 7:34.45 | 83550 | 117644
3 | 26:08.45 | 21:38.30 | 117645 | 215024
Track 1
Filename C:\EAC rips\01 - Part I.wav
Pre-gap length 0:00:02.00
Peak level 100.0 %
Extraction speed 2.9 X
Track quality 100.0 %
Test CRC 4D6D47E2
Copy CRC 4D6D47E2
Track not present in AccurateRip database
Copy OK
Track 2
Filename C:\EAC rips\02 - Part II.wav
Peak level 98.8 %
Extraction speed 3.4 X
Track quality 100.0 %
Test CRC A2064DA7
Copy CRC A2064DA7
Track not present in AccurateRip database
Copy OK
Track 3
Filename C:\EAC rips\03 - Part III.wav
Peak level 99.5 %
Extraction speed 4.2 X
Track quality 100.0 %
Test CRC 214B6737
Copy CRC 214B6737
Track not present in AccurateRip database
Copy OK
None of the tracks are present in the AccurateRip database
No errors occurred
End of status report
---- CUETools DB Plugin V2.1.4
[CTDB TOCID: rDO3OHsF2F3rny15JiFuNpk01bA-] disk not present in database
Submit result: rDO3OHsF2F3rny15JiFuNpk01bA- has been uploaded
==== Log checksum 0B65A5667432309C341F0A92A680BE15BCFB528E53314CF754E322A1EC45DBCE ====
 
Содержание индексной карты (.CUE)
REM GENRE "Hevhetia EH 0040-2-331"
REM DATE 2013
REM DISCID 180B3303
REM COMMENT "ExactAudioCopy v1.0b3"
PERFORMER "Hautzinger, Fujak, Sörés"
TITLE "Live in Brussels"
FILE "01 - Part I.wav" WAVE
TRACK 01 AUDIO
TITLE "Part I"
PERFORMER "Hautzinger, Fujak, Sörés"
INDEX 01 00:00:00
FILE "02 - Part II.wav" WAVE
TRACK 02 AUDIO
TITLE "Part II"
PERFORMER "Hautzinger, Fujak, Sörés"
INDEX 01 00:00:00
FILE "03 - Part III.wav" WAVE
TRACK 03 AUDIO
TITLE "Part III"
PERFORMER "Hautzinger, Fujak, Sörés"
INDEX 01 00:00:00
 
CD


По всем вопросам пишите личное сообщение пользователю M0p94ok.
08:39
174
Нет комментариев. Ваш будет первым!