Вы используете незарегистрированную версию компонента "Вкладки"!

Поиск

(Avant-garde Jazz, Fusion) [CD] Umezu Kazutoki KIKI Band (Kido Natsuki, Hayakawa Takeharu, Joe Trump) - Demagogue - 2007, FLAC (tracks+.cue), lossless

(Avant-garde Jazz, Fusion) [CD] Umezu Kazutoki KIKI Band (Kido Natsuki, Hayakawa Takeharu, Joe Trump) - Demagogue - 2007, FLAC (tracks+.cue), lossless
Треклист:
Umezu Kazutoki KIKI Band / Demagogue
Жанр: Avant-garde Jazz, Fusion
Носитель: CD
Страна-производитель диска (релиза): Japan
Год издания: 2007
Издатель (лейбл): ZOTT Records
Номер по каталогу: 003
Аудиокодек: FLAC (*.flac)
Тип рипа: tracks+.cue
Битрейт аудио: lossless
Продолжительность: 54:51
Источник (релизер): CD
Наличие сканов в содержимом раздачи: нет
Треклист:
01. Outer Stopper
02. Harpy
03. Hot AX
04. Nowhere House
05. We have no Banana!!!
06. Afirah Majimn
07. Dogged Dog
08. Rumba Del Acantilado
09. Black Jack
 
Лог создания рипа
Exact Audio Copy V1.0 beta 3 from 29. August 2011
EAC extraction logfile from 26. January 2015, 16:28
Umezu Kazutoki Kiki Band / Demagogue
Used drive : ASUS DRW-24F1ST a Adapter: 0 ID: 0
Read mode : Secure
Utilize accurate stream : Yes
Defeat audio cache : Yes
Make use of C2 pointers : No
Read offset correction : 6
Overread into Lead-In and Lead-Out : No
Fill up missing offset samples with silence : Yes
Delete leading and trailing silent blocks : No
Null samples used in CRC calculations : Yes
Used interface : Native Win32 interface for Win NT & 2000
Gap handling : Appended to previous track
Used output format : User Defined Encoder
Selected bitrate : 320 kBit/s
Quality : High
Add ID3 tag : No
Command line compressor : D:\Programs\Exact Audio Copy\Flac\flac.exe
Additional command line options : -V -8 -T "Genre=%genre%" -T "Artist=%artist%" -T "Title=%title%" -T "Album=%albumtitle%" -T "Date=%year%" -T "Tracknumber=%tracknr%" -T "Comment=%comment%" %source%
TOC of the extracted CD
Track | Start | Length | Start sector | End sector
---------------------------------------------------------
1 | 0:00.00 | 5:19.09 | 0 | 23933
2 | 5:19.09 | 4:41.74 | 23934 | 45082
3 | 10:01.08 | 6:53.33 | 45083 | 76090
4 | 16:54.41 | 7:22.25 | 76091 | 109265
5 | 24:16.66 | 3:56.08 | 109266 | 126973
6 | 28:12.74 | 7:34.49 | 126974 | 161072
7 | 35:47.48 | 4:55.14 | 161073 | 183211
8 | 40:42.62 | 6:59.47 | 183212 | 214683
9 | 47:42.34 | 7:09.16 | 214684 | 246874
Track 1
Filename D:\EAC\01 Outer Stopper.wav
Pre-gap length 0:00:02.00
Peak level 100.0 %
Extraction speed 5.2 X
Track quality 100.0 %
Test CRC F4DCDCC5
Copy CRC F4DCDCC5
Copy OK
Track 2
Filename D:\EAC\02 Harpy.wav
Peak level 100.0 %
Extraction speed 5.6 X
Track quality 100.0 %
Test CRC DD527F14
Copy CRC DD527F14
Copy OK
Track 3
Filename D:\EAC\03 Hot AX.wav
Peak level 100.0 %
Extraction speed 6.4 X
Track quality 100.0 %
Test CRC 53FF5C2A
Copy CRC 53FF5C2A
Copy OK
Track 4
Filename D:\EAC\04 Nowhere House.wav
Peak level 100.0 %
Extraction speed 7.1 X
Track quality 100.0 %
Test CRC 47C1B4E6
Copy CRC 47C1B4E6
Copy OK
Track 5
Filename D:\EAC\05 We have no Banana!!!.wav
Peak level 100.0 %
Extraction speed 7.0 X
Track quality 100.0 %
Test CRC 60FA4760
Copy CRC 60FA4760
Copy OK
Track 6
Filename D:\EAC\06 Afirah Majimn.wav
Peak level 100.0 %
Extraction speed 7.9 X
Track quality 100.0 %
Test CRC 3B819C52
Copy CRC 3B819C52
Copy OK
Track 7
Filename D:\EAC\07 Dogged Dog.wav
Peak level 93.3 %
Extraction speed 7.9 X
Track quality 100.0 %
Test CRC B1491AB1
Copy CRC B1491AB1
Copy OK
Track 8
Filename D:\EAC\08 Rumba Del Acantilado.wav
Peak level 100.0 %
Extraction speed 7.9 X
Track quality 99.9 %
Test CRC 3CEE011B
Copy CRC 3CEE011B
Copy OK
Track 9
Filename D:\EAC\09 Black Jack.wav
Peak level 100.0 %
Extraction speed 9.0 X
Track quality 100.0 %
Test CRC DA895F91
Copy CRC DA895F91
Copy OK
No errors occurred
End of status report
==== Log checksum 263D64823496C30510D26140B807A8561BB9584E2DD41C08481E2CA50F9B1442 ====
 
Содержание индексной карты (.CUE)
REM GENRE Jazz
REM DATE 2007
REM DISCID 710CDB09
REM COMMENT "ExactAudioCopy v1.0b3"
PERFORMER "Umezu Kazutoki Kiki Band"
TITLE "Demagogue"
FILE "01 Outer Stopper.wav" WAVE
TRACK 01 AUDIO
TITLE "Outer Stopper"
PERFORMER "Umezu Kazutoki Kiki Band"
FLAGS DCP
INDEX 01 00:00:00
FILE "02 Harpy.wav" WAVE
TRACK 02 AUDIO
TITLE "Harpy"
PERFORMER "Umezu Kazutoki Kiki Band"
FLAGS DCP
INDEX 01 00:00:00
FILE "03 Hot AX.wav" WAVE
TRACK 03 AUDIO
TITLE "Hot AX"
PERFORMER "Umezu Kazutoki Kiki Band"
FLAGS DCP
INDEX 01 00:00:00
FILE "04 Nowhere House.wav" WAVE
TRACK 04 AUDIO
TITLE "Nowhere House"
PERFORMER "Umezu Kazutoki Kiki Band"
FLAGS DCP
INDEX 01 00:00:00
FILE "05 We have no Banana!!!.wav" WAVE
TRACK 05 AUDIO
TITLE "We have no Banana!!!"
PERFORMER "Umezu Kazutoki Kiki Band"
FLAGS DCP
INDEX 01 00:00:00
FILE "06 Afirah Majimn.wav" WAVE
TRACK 06 AUDIO
TITLE "Afirah Majimn"
PERFORMER "Umezu Kazutoki Kiki Band"
FLAGS DCP
INDEX 01 00:00:00
FILE "07 Dogged Dog.wav" WAVE
TRACK 07 AUDIO
TITLE "Dogged Dog"
PERFORMER "Umezu Kazutoki Kiki Band"
FLAGS DCP
INDEX 01 00:00:00
FILE "08 Rumba Del Acantilado.wav" WAVE
TRACK 08 AUDIO
TITLE "Rumba Del Acantilado"
PERFORMER "Umezu Kazutoki Kiki Band"
FLAGS DCP
INDEX 01 00:00:00
FILE "09 Black Jack.wav" WAVE
TRACK 09 AUDIO
TITLE "Black Jack"
PERFORMER "Umezu Kazutoki Kiki Band"
FLAGS DCP
INDEX 01 00:00:00
Доп. информация: Recording at GOK Studio, 3, 4 & 6 March 2007
 
Состав
E.Bass, Ac.Bass – Hayakawa Takeharu
Drums, Percussion – Joe Trump
E.Guitar, Ac.Guitar, Mandolin – Kido Natsuki
As,Cl,Sopranino Sax, Bcl – Umezu Kazutoki
По всем вопросам пишите личное сообщение пользователю M0p94ok.
08:39
142
Нет комментариев. Ваш будет первым!