Вы используете незарегистрированную версию компонента "Вкладки"!

Поиск

(Avant-Garde, Free Improvisation) [CD] Ernesto Diaz-Infante & Chris Forsyth - Wires And Wooden Boxes - 2001, FLAC (tracks+.cue), lossless

(Avant-Garde, Free Improvisation) [CD] Ernesto Diaz-Infante & Chris Forsyth - Wires And Wooden Boxes - 2001, FLAC (tracks+.cue), lossless
Треклист:
Ernesto Diaz-Infante & Chris Forsyth / Wires And Wooden Boxes
Жанр: Avant-Garde, Free Improvisation
Носитель: CD
Страна-производитель диска: US
Год издания: 2001
Издатель (лейбл): Evolving Ear / Pax Recordings
Номер по каталогу: EE 03 / PR90252
Страна: US
Аудиокодек: FLAC (*.flac)
Тип рипа: tracks+.cue
Битрейт аудио: lossless
Продолжительность: 49:16
Источник (релизер): свой фирменный диск
Наличие сканов в содержимом раздачи:
Треклист:
1. NYC Journal Excerpt (2000) piano/guitar 5:23
2. Metallic Strands... "acoustic/electric #14" 5:01
3. Sound Is Good All The Time 8:49
4. Straight To It 6:06
5. Pulled Wires... "acoustic/electric #13" 2:39
6. Passing One Another... "acoustic/electric #17" 5:54
7. Knock On Wood... "acoustic/electric #11" 4:11
8. Cut And Dried... "acoustic/electric #2" 3:28
9. To Place In... "acoustic/electric #12" 2:25
10. Trace Out Motion 5:21
 
Лог создания рипа
Exact Audio Copy V1.0 beta 3 from 29. August 2011
EAC extraction logfile from 15. March 2014, 9:38
Ernesto Diaz-Infante & Chris Forsyth / Wires & Wooden Boxes
Used drive : PIONEER DVD-RW DVR-115D Adapter: 0 ID: 0
Read mode : Secure
Utilize accurate stream : Yes
Defeat audio cache : Yes
Make use of C2 pointers : No
Read offset correction : 48
Overread into Lead-In and Lead-Out : No
Fill up missing offset samples with silence : Yes
Delete leading and trailing silent blocks : No
Null samples used in CRC calculations : Yes
Used interface : Installed external ASPI interface
Gap handling : Appended to previous track
Used output format : User Defined Encoder
Selected bitrate : 896 kBit/s
Quality : High
Add ID3 tag : No
Command line compressor : C:\Program Files\Exact Audio Copy\FLAC\FLAC.EXE
Additional command line options : -6 -V -T "ARTIST=%artist%" -T "TITLE=%title%" -T "ALBUM=%albumtitle%" -T "DATE=%year%" -T "TRACKNUMBER=%tracknr%" -T "GENRE=%genre%" -T "COMMENT=%comment%" -T "BAND=%albuminterpret%" -T "COMPOSER=%composer%" %haslyrics%--tag-from-file=LYRICS="%lyricsfile%"%haslyrics% -T "DISCNUMBER=%cdnumber%" -T "TOTALDISCS=%totalcds%" -T "TOTALTRACKS=%numtracks%" %hascover%--picture="%coverfile%"%hascover% %source% -o %dest%
TOC of the extracted CD
Track | Start | Length | Start sector | End sector
---------------------------------------------------------
1 | 0:00.00 | 5:22.58 | 0 | 24207
2 | 5:22.58 | 5:00.22 | 24208 | 46729
3 | 10:23.05 | 8:49.62 | 46730 | 86466
4 | 19:12.67 | 6:05.18 | 86467 | 113859
5 | 25:18.10 | 2:39.60 | 113860 | 125844
6 | 27:57.70 | 5:53.15 | 125845 | 152334
7 | 33:51.10 | 4:11.57 | 152335 | 171216
8 | 38:02.67 | 3:27.38 | 171217 | 186779
9 | 41:30.30 | 2:24.55 | 186780 | 197634
10 | 43:55.10 | 5:21.13 | 197635 | 221722
Track 1
Filename D:\zzz\01 - NYC Journal Excerpt (2000) Piano,Guitar.wav
Pre-gap length 0:00:02.00
Peak level 95.7 %
Extraction speed 4.6 X
Track quality 100.0 %
Test CRC D2CC19D1
Copy CRC D2CC19D1
Track not present in AccurateRip database
Copy OK
Track 2
Filename D:\zzz\02 - Metallic Strands.wav
Peak level 93.0 %
Extraction speed 5.2 X
Track quality 100.0 %
Test CRC D1A30242
Copy CRC D1A30242
Track not present in AccurateRip database
Copy OK
Track 3
Filename D:\zzz\03 - Sound Is Good All The Time.wav
Peak level 79.7 %
Extraction speed 6.1 X
Track quality 100.0 %
Test CRC D16FA64C
Copy CRC D16FA64C
Track not present in AccurateRip database
Copy OK
Track 4
Filename D:\zzz\04 - Straight To It.wav
Peak level 98.0 %
Extraction speed 6.5 X
Track quality 100.0 %
Test CRC 5924DD3A
Copy CRC 5924DD3A
Track not present in AccurateRip database
Copy OK
Track 5
Filename D:\zzz\05 - Pulled Wires.wav
Peak level 91.9 %
Extraction speed 6.1 X
Track quality 100.0 %
Test CRC 432BFC97
Copy CRC 432BFC97
Track not present in AccurateRip database
Copy OK
Track 6
Filename D:\zzz\06 - Passing One Another.wav
Peak level 95.5 %
Extraction speed 6.6 X
Track quality 99.9 %
Test CRC 2FA67715
Copy CRC 2FA67715
Track not present in AccurateRip database
Copy OK
Track 7
Filename D:\zzz\07 - Knock On Wood.wav
Peak level 68.0 %
Extraction speed 7.2 X
Track quality 100.0 %
Test CRC 687FC2B1
Copy CRC 687FC2B1
Track not present in AccurateRip database
Copy OK
Track 8
Filename D:\zzz\08 - Cut And Dried.wav
Peak level 78.8 %
Extraction speed 6.2 X
Track quality 99.9 %
Test CRC 8C789F58
Copy CRC 8C789F58
Track not present in AccurateRip database
Copy OK
Track 9
Filename D:\zzz\09 - To Place In.wav
Peak level 80.4 %
Extraction speed 5.7 X
Track quality 99.9 %
Test CRC 2301B85B
Copy CRC 2301B85B
Track not present in AccurateRip database
Copy OK
Track 10
Filename D:\zzz\10 - Trace Out Motion.wav
Peak level 72.9 %
Extraction speed 7.9 X
Track quality 100.0 %
Test CRC AB431824
Copy CRC AB431824
Track not present in AccurateRip database
Copy OK
None of the tracks are present in the AccurateRip database
No errors occurred
End of status report
==== Log checksum 851D05D34F922A6BE6B111D333F3B2AA6565644B0E847ACB8DAA92C1F85038B5 ====
 
Содержание индексной карты (.CUE)
REM GENRE Avant-Garde
REM DATE 2001
REM DISCID 7D0B8C0A
REM COMMENT "ExactAudioCopy v1.0b3"
PERFORMER "Ernesto Diaz-Infante & Chris Forsyth"
TITLE "Wires & Wooden Boxes"
FILE "01 - NYC Journal Excerpt (2000) Piano,Guitar.wav" WAVE
TRACK 01 AUDIO
TITLE "NYC Journal Excerpt (2000) Piano/Guitar"
PERFORMER "Ernesto Diaz-Infante & Chris Forsyth"
INDEX 01 00:00:00
FILE "02 - Metallic Strands.wav" WAVE
TRACK 02 AUDIO
TITLE "Metallic Strands"
PERFORMER "Ernesto Diaz-Infante & Chris Forsyth"
INDEX 01 00:00:00
FILE "03 - Sound Is Good All The Time.wav" WAVE
TRACK 03 AUDIO
TITLE "Sound Is Good All The Time"
PERFORMER "Ernesto Diaz-Infante & Chris Forsyth"
INDEX 01 00:00:00
FILE "04 - Straight To It.wav" WAVE
TRACK 04 AUDIO
TITLE "Straight To It"
PERFORMER "Ernesto Diaz-Infante & Chris Forsyth"
INDEX 01 00:00:00
FILE "05 - Pulled Wires.wav" WAVE
TRACK 05 AUDIO
TITLE "Pulled Wires"
PERFORMER "Ernesto Diaz-Infante & Chris Forsyth"
INDEX 01 00:00:00
FILE "06 - Passing One Another.wav" WAVE
TRACK 06 AUDIO
TITLE "Passing One Another"
PERFORMER "Ernesto Diaz-Infante & Chris Forsyth"
INDEX 01 00:00:00
FILE "07 - Knock On Wood.wav" WAVE
TRACK 07 AUDIO
TITLE "Knock On Wood"
PERFORMER "Ernesto Diaz-Infante & Chris Forsyth"
INDEX 01 00:00:00
FILE "08 - Cut And Dried.wav" WAVE
TRACK 08 AUDIO
TITLE "Cut And Dried"
PERFORMER "Ernesto Diaz-Infante & Chris Forsyth"
INDEX 01 00:00:00
FILE "09 - To Place In.wav" WAVE
TRACK 09 AUDIO
TITLE "To Place In"
PERFORMER "Ernesto Diaz-Infante & Chris Forsyth"
INDEX 01 00:00:00
FILE "10 - Trace Out Motion.wav" WAVE
TRACK 10 AUDIO
TITLE "Trace Out Motion"
PERFORMER "Ernesto Diaz-Infante & Chris Forsyth"
INDEX 01 00:00:00
 
Лог проверки качества
d:\>d:\aucdtect -d/-m0 d:\zzz\*.wav
auCDtect: CD records authenticity detector, version 0.8.2
Copyright (c) 2004 Oleg Berngardt. All rights reserved.
Copyright (c) 2004 Alexander Djourik. All rights reserved.
------------------------------------------------------------
Processing file: [01. NYC Journal Excerpt (2000) Piano-Guitar.wav]
------------------------------------------------------------
This track looks like CDDA with probability 100%
------------------------------------------------------------
Processing file: [02. Metallic Strands.wav]
------------------------------------------------------------
This track looks like CDDA with probability 100%
------------------------------------------------------------
Processing file: [03. Sound Is Good All The Time.wav]
------------------------------------------------------------
This track looks like CDDA with probability 100%
------------------------------------------------------------
Processing file: [04. Straight To It.wav]
------------------------------------------------------------
This track looks like CDDA with probability 100%
------------------------------------------------------------
Processing file: [05. Pulled Wires.wav]
------------------------------------------------------------
This track looks like CDDA with probability 100%
------------------------------------------------------------
Processing file: [06. Passing One Another.wav]
------------------------------------------------------------
This track looks like CDDA with probability 100%
------------------------------------------------------------
Processing file: [07. Knock On Wood.wav]
------------------------------------------------------------
This track looks like CDDA with probability 100%
------------------------------------------------------------
Processing file: [08. Cut And Dried.wav]
------------------------------------------------------------
This track looks like CDDA with probability 100%
------------------------------------------------------------
Processing file: [09. To Place In.wav]
------------------------------------------------------------
This track looks like CDDA with probability 100%
------------------------------------------------------------
Processing file: [10. Trace Out Motion.wav]
------------------------------------------------------------
This track looks like CDDA with probability 100%
------------------------------------------------------------
Final Conclusion:
------------------------------------------------------------
These tracks looks like CDDA with probability 100%
Доп. информация:
 
Album Info & AAJ Review
All compositions by Ernesto Diaz-Infante & Chris Forsyth
Produced by Ernesto Diaz-Infante & Chris Forsyth
Recorded by Ross Bonadonna at Wombat Recording Co., Brooklyn, NY
Mixed by Chris Forsyth and Ross Bonadonna
Mastered by Rich Gross at Master Bedroom
Score drawing by Ernesto Diaz-Infante
Design by Littlegem Design
Liner notes: EDI/CF, April, 2001
For pure sonic experimentation, string instruments offer some very attractive options. They bear complex higher-level overtones, which can be crafted and manipulated using various percussive and abrasive approaches. They're amenable to amplification, which can introduce another whole bag of tricks. And they're generally attached to resonant pieces of wood, which often work quite well as percussion instruments in and of themselves.
Ernesto Diaz-Infante and Chris Forsyth take this idea as their lead concept for their second collaboration, aptly named Wires and Wooden Boxes. The opener features Diaz-Infante playing reflective held piano chords while Forsyth pulls his amp cord in and out of the jack on his guitar. It's interesting, but the end result falls a bit short. More intriguing are the pieces where these two players coax higher-order melodic and harmonic structures out of their instruments—like the intensely interactive, clustral "Straight To It," or the neo-folk tune "Passing One Another." Music this wildly experimental always relies upon open ears to communicate its message. While I find much of it curious (and at times brilliant), there are also plenty of moments where I can only shake my head. If you're willing to take the plunge, this record offers an extremely—if sometimes indulgently—creative take on string music in all its rich variety. The ideas that work on Wires and Wooden Boxes are timelessly beautiful. You can always hit the fast forward button on the rest.
 
Состав
Ernesto Diaz-Infante: acoustic guitar, piano, toy piano, voice, small percussion
Chris Forsyth: electric guitar, piano soundboard, small percussion
По всем вопросам пишите личное сообщение пользователю M0p94ok.
00:47
180
Нет комментариев. Ваш будет первым!