Вы используете незарегистрированную версию компонента "Вкладки"!

Поиск

(free jazz) [CD] Rashied Ali Quintet - Judgement Day, Vol. 1&2, FLAC (tracks), lossless

(free jazz) [CD] Rashied Ali Quintet - Judgement Day, Vol. 1&2, FLAC (tracks), lossless
Треклист:


Rashied Ali Quintet - Judgement Day, Vol. 1&2

Жанр:free jazz
Год выпуска: 2005,2006
Издатель (лейбл): Survival Records (2) SR121 /SR121
Формат: FLAC (tracks)
Битрейт аудио: lossless
Источник: what.cd
Bass – Joris Teepe
Drums – Rashied Ali
Piano – Greg Murphy
Saxophone [Tenor] – Lawrence Clark
Trumpet – Jumaane Smith
 
Vol. 1 2005



Vol. 1 2005
1 Sidewalks In Motion 6:04
2 Dania 8:48
3 You're Reading My Mind 6:54
4 Judgment Day 8:17
5 Shied Indeed 5:39
6 Raw Fish 5:58
7 The Big Push 7:19
8 M.O. 4:38
9 Multi Culti 6:28
total 1`00`11

 
.accurip
[CUETools log; Date: 29/03/14 15:48:40; Version: 2.1.4]
[CTDB TOCID: re1Onxo47p.zFjdNRD9orRbG3DQ-] found.
Track | CTDB Status
1 | (2/2) Accurately ripped
2 | (2/2) Accurately ripped
3 | (2/2) Accurately ripped
4 | (2/2) Accurately ripped
5 | (2/2) Accurately ripped
6 | (2/2) Accurately ripped
7 | (2/2) Accurately ripped
8 | (2/2) Accurately ripped
9 | (2/2) Accurately ripped
[AccurateRip ID: 001583be-009c7dd8-7f0e1b09] found.
Track [ CRC | V2 ] Status
01 [f9ee8565|7962f42e] (0+1/1) Accurately ripped
02 [0629e856|341f03e7] (0+1/1) Accurately ripped
03 [b8ab9b25|b2b5c10f] (0+1/1) Accurately ripped
04 [1adc5278|7220ae4f] (0+1/1) Accurately ripped
05 [4ca44759|8bb655e9] (0+1/1) Accurately ripped
06 [c5fe794a|4302dfde] (0+1/1) Accurately ripped
07 [2b90d47e|ccc79066] (0+1/1) Accurately ripped
08 [ee3c3de1|f47163e3] (0+1/1) Accurately ripped
09 [76a59b4b|291fe35b] (0+1/1) Accurately ripped
Track Peak [ CRC32 ] [W/O NULL]
-- 100.0 [3C5BA28A] [B58B2D45]
01 97.8 [3426DB85] [DC2B6B66]
02 98.3 [66C0FC74] [25306973]
03 99.4 [D8E0088A] [75681E6A]
04 98.6 [CEC328EF] [EFA41517]
05 98.3 [1B67E989] [AA6DD77B]
06 97.9 [C75B1DB2] [A1DF5611]
07 100.0 [E88CA91B] [ECF1552F]
08 97.7 [4769D96A] [F4335B96]
09 98.2 [E3355FC2] [8BC3528D]
 
auCDtect
auCDtect: CD records authenticity detector, version 0.8.2
Copyright (c) 2004 Oleg Berngardt. All rights reserved.
Copyright (c) 2004 Alexander Djourik. All rights reserved.
------------------------------------------------------------
Processing file: [01 - Sidewalks In Motion.wav]
------------------------------------------------------------
This track looks like CDDA with probability 100%
------------------------------------------------------------
Processing file: [02 - Dania.wav]
------------------------------------------------------------
This track looks like CDDA with probability 100%
------------------------------------------------------------
Processing file: [03 - Youre Reading My Mind.wav]
------------------------------------------------------------
This track looks like CDDA with probability 100%
------------------------------------------------------------
Processing file: [04 - Judgement Day.wav]
------------------------------------------------------------
This track looks like CDDA with probability 100%
------------------------------------------------------------
Processing file: [05 - Shied Indeed.wav]
------------------------------------------------------------
This track looks like CDDA with probability 100%
------------------------------------------------------------
Processing file: [06 - Raw Fish.wav]
------------------------------------------------------------
This track looks like CDDA with probability 100%
------------------------------------------------------------
Processing file: [07 - The Big Push.wav]
------------------------------------------------------------
This track looks like CDDA with probability 100%
------------------------------------------------------------
Processing file: [08 - Mo.wav]
------------------------------------------------------------
This track looks like CDDA with probability 100%
------------------------------------------------------------
Processing file: [09 - Multi Culti.wav]
------------------------------------------------------------
This track looks like CDDA with probability 99%
------------------------------------------------------------
Final Conclusion:
------------------------------------------------------------
These tracks looks like CDDA with probability 100%
 
Vol. 2 2006



Vol. 2 2006
1 Skane's Refrain 7:09
2 Lush Life 9:42
3 Thing For Joe 8:03
4 Judgment Day 8:18
5 Flight #643 6:09
6 Round Midnite 7:40
7 Yesterday (J. Man) Tomorrow 5:28
8 Multi Culti 6:43
total 59`26

 
.log
X Lossless Decoder version 20100123 (115.4)
XLD extraction logfile from 2010-02-03 23:46:52 -0800
Rashied Ali / Judgment Day Volume Two
Used drive : OPTIARC DVD RW AD-5680H (revision 3AHB)
Use cdparanoia mode : YES (CDParanoia III 10.2 engine)
Disable audio cache : OK for the drive with cache less than 2750KB
Make use of C2 pointers : NO
Read offset correction : 48
Max retry count : 100
TOC of the extracted CD
Track | Start | Length | Start sector | End sector
---------------------------------------------------------
1 | 00:00:00 | 07:09:62 | 0 | 32236
2 | 07:09:62 | 09:50:54 | 32237 | 76540
3 | 17:00:41 | 08:03:32 | 76541 | 112797
4 | 25:03:73 | 08:20:09 | 112798 | 150306
5 | 33:24:07 | 06:09:67 | 150307 | 178048
6 | 39:33:74 | 07:40:70 | 178049 | 212618
7 | 47:14:69 | 05:28:15 | 212619 | 237233
8 | 52:43:09 | 06:42:61 | 237234 | 267444
Track 01
Filename : /Users/micahgilbert/Music/iTunes/iTunes Media/Music/Rashied Ali/Judgement Day Volume 2/01 - Skane's Refrain.flac
Pre-gap length : 00:02:00
CRC32 hash (test run) : AE28CED9
CRC32 hash : AE28CED9
CRC32 hash (skip zero) : 5D7235D7
AccurateRip signature : 688D4735
->Track not present in AccurateRip database.
Statistics
Read error : 0
Skipped (treated as error) : 0
Edge jitter error (maybe fixed) : 0
Atom jitter error (maybe fixed) : 0
Drift error (maybe fixed) : 0
Dropped bytes error (maybe fixed) : 0
Duplicated bytes error (maybe fixed) : 0
Inconsistency in error sectors : 0
Track 02
Filename : /Users/micahgilbert/Music/iTunes/iTunes Media/Music/Rashied Ali/Judgement Day Volume 2/02 - Lush Life.flac
CRC32 hash (test run) : C022001D
CRC32 hash : C022001D
CRC32 hash (skip zero) : 067F773E
AccurateRip signature : B0E1EFD9
->Track not present in AccurateRip database.
Statistics
Read error : 0
Skipped (treated as error) : 0
Edge jitter error (maybe fixed) : 0
Atom jitter error (maybe fixed) : 0
Drift error (maybe fixed) : 0
Dropped bytes error (maybe fixed) : 0
Duplicated bytes error (maybe fixed) : 0
Inconsistency in error sectors : 0
Track 03
Filename : /Users/micahgilbert/Music/iTunes/iTunes Media/Music/Rashied Ali/Judgement Day Volume 2/03 - Thing For Joe.flac
CRC32 hash (test run) : 7AAF6781
CRC32 hash : 7AAF6781
CRC32 hash (skip zero) : 66E26238
AccurateRip signature : 9B39B064
->Track not present in AccurateRip database.
Statistics
Read error : 0
Skipped (treated as error) : 0
Edge jitter error (maybe fixed) : 0
Atom jitter error (maybe fixed) : 0
Drift error (maybe fixed) : 0
Dropped bytes error (maybe fixed) : 0
Duplicated bytes error (maybe fixed) : 0
Inconsistency in error sectors : 0
Track 04
Filename : /Users/micahgilbert/Music/iTunes/iTunes Media/Music/Rashied Ali/Judgement Day Volume 2/04 - Judgment Day.flac
CRC32 hash (test run) : 2B131C38
CRC32 hash : 2B131C38
CRC32 hash (skip zero) : 13F2A30D
AccurateRip signature : 5EAAAD67
->Track not present in AccurateRip database.
Statistics
Read error : 0
Skipped (treated as error) : 0
Edge jitter error (maybe fixed) : 0
Atom jitter error (maybe fixed) : 0
Drift error (maybe fixed) : 0
Dropped bytes error (maybe fixed) : 0
Duplicated bytes error (maybe fixed) : 0
Inconsistency in error sectors : 0
Track 05
Filename : /Users/micahgilbert/Music/iTunes/iTunes Media/Music/Rashied Ali/Judgement Day Volume 2/05 - Flight # 643.flac
CRC32 hash (test run) : 77032D7F
CRC32 hash : 77032D7F
CRC32 hash (skip zero) : EE8A84AF
AccurateRip signature : C44C840E
->Track not present in AccurateRip database.
Statistics
Read error : 0
Skipped (treated as error) : 0
Edge jitter error (maybe fixed) : 0
Atom jitter error (maybe fixed) : 0
Drift error (maybe fixed) : 0
Dropped bytes error (maybe fixed) : 0
Duplicated bytes error (maybe fixed) : 0
Inconsistency in error sectors : 0
Track 06
Filename : /Users/micahgilbert/Music/iTunes/iTunes Media/Music/Rashied Ali/Judgement Day Volume 2/06 - Round Midnight.flac
CRC32 hash (test run) : CFE21434
CRC32 hash : CFE21434
CRC32 hash (skip zero) : F14B666B
AccurateRip signature : 08B66867
->Track not present in AccurateRip database.
Statistics
Read error : 0
Skipped (treated as error) : 0
Edge jitter error (maybe fixed) : 0
Atom jitter error (maybe fixed) : 0
Drift error (maybe fixed) : 0
Dropped bytes error (maybe fixed) : 0
Duplicated bytes error (maybe fixed) : 0
Inconsistency in error sectors : 0
Track 07
Filename : /Users/micahgilbert/Music/iTunes/iTunes Media/Music/Rashied Ali/Judgement Day Volume 2/07 - Yesterday's (J. Man) Tomorrow.flac
CRC32 hash (test run) : 4E7D6270
CRC32 hash : 4E7D6270
CRC32 hash (skip zero) : FF873539
AccurateRip signature : 7FF2D975
->Track not present in AccurateRip database.
Statistics
Read error : 0
Skipped (treated as error) : 0
Edge jitter error (maybe fixed) : 0
Atom jitter error (maybe fixed) : 0
Drift error (maybe fixed) : 0
Dropped bytes error (maybe fixed) : 0
Duplicated bytes error (maybe fixed) : 0
Inconsistency in error sectors : 0
Track 08
Filename : /Users/micahgilbert/Music/iTunes/iTunes Media/Music/Rashied Ali/Judgement Day Volume 2/08 - Multi Culti.flac
CRC32 hash (test run) : 738B2545
CRC32 hash : 738B2545
CRC32 hash (skip zero) : 6102C400
AccurateRip signature : D471E874
->Track not present in AccurateRip database.
Statistics
Read error : 0
Skipped (treated as error) : 0
Edge jitter error (maybe fixed) : 0
Atom jitter error (maybe fixed) : 0
Drift error (maybe fixed) : 0
Dropped bytes error (maybe fixed) : 0
Duplicated bytes error (maybe fixed) : 0
Inconsistency in error sectors : 0
No errors occurred
End of status report
 
.cue
TITLE "Judgement Day, Vol. 2"
PERFORMER "Rashied Ali Quintet"
REM GENRE "Jazz"
REM DATE 2006
FILE "01 - Skane's Refrain.wav" WAVE
TRACK 01 AUDIO
TITLE "Skane's Refrain"
SONGWRITER "Greg Murphy"
INDEX 01 00:00:00
FILE "02 - Lush Life.wav" WAVE
TRACK 02 AUDIO
TITLE "Lush Life"
SONGWRITER "Billy Strayhorn"
INDEX 01 00:00:00
FILE "03 - Thing For Joe.wav" WAVE
TRACK 03 AUDIO
TITLE "Thing For Joe"
SONGWRITER "James Ulmer"
INDEX 01 00:00:00
FILE "04 - Judgment Day.wav" WAVE
TRACK 04 AUDIO
TITLE "Judgment Day"
SONGWRITER "Lawrence Clark"
INDEX 01 00:00:00
FILE "05 - Flight # 643.wav" WAVE
TRACK 05 AUDIO
TITLE "Flight # 643"
SONGWRITER "Joris Teepe"
INDEX 01 00:00:00
FILE "06 - Round Midnight.wav" WAVE
TRACK 06 AUDIO
TITLE "Round Midnight"
SONGWRITER "Thelonious Monk"
INDEX 01 00:00:00
FILE "07 - Yesterday's (J. Man) Tomorrow.wav" WAVE
TRACK 07 AUDIO
TITLE "Yesterday's (J. Man) Tomorrow"
SONGWRITER "Jumaane Smith"
INDEX 01 00:00:00
FILE "08 - Multi Culti.wav" WAVE
TRACK 08 AUDIO
TITLE "Multi Culti"
SONGWRITER "Don Cherry"
INDEX 01 00:00:00
 
.accurip
[CUETools log; Date: 29/03/14 16:11:56; Version: 2.1.4]
[CTDB TOCID: Q3JhQU5zOSPFSTo7lo4vQfuyj2g-] found.
Track | CTDB Status
1 | (2/2) Accurately ripped
2 | (2/2) Accurately ripped
3 | (2/2) Accurately ripped
4 | (2/2) Accurately ripped
5 | (2/2) Accurately ripped
6 | (2/2) Accurately ripped
7 | (2/2) Accurately ripped
8 | (2/2) Accurately ripped
[AccurateRip ID: 0013561e-007f89b9-550ded08] found.
Track [ CRC | V2 ] Status
01 [688d4735|c4febe73] (0+1/1) Accurately ripped
02 [b0e1efd9|d6d964e5] (0+1/1) Accurately ripped
03 [9b39b064|2fa79060] (0+1/1) Accurately ripped
04 [5eaaad67|030bc115] (0+1/1) Accurately ripped
05 [c44c840e|80013008] (0+1/1) Accurately ripped
06 [08b66867|54a124f5] (0+1/1) Accurately ripped
07 [7ff2d975|c15d9241] (0+1/1) Accurately ripped
08 [d471e874|0ee835a4] (0+1/1) Accurately ripped
Track Peak [ CRC32 ] [W/O NULL]
-- 99.7 [44932876] [69D475FA]
01 98.0 [AE28CED9] [5D7235D7]
02 97.7 [C022001D] [067F773E]
03 98.3 [7AAF6781] [66E26238]
04 99.7 [2B131C38] [13F2A30D]
05 98.1 [77032D7F] [EE8A84AF]
06 97.5 [CFE21434] [F14B666B]
07 97.9 [4E7D6270] [FF873539]
08 99.5 [738B2545] [6102C400]
другие релизы
По всем вопросам пишите личное сообщение пользователю M0p94ok.
00:48
224
Нет комментариев. Ваш будет первым!