Вы используете незарегистрированную версию компонента "Вкладки"!

Поиск

(Avant-Garde Jazz, Free Improvisation, Edgetone) [CDR] Rent Romus (w/ Joel Harrison, Tom Nunn a.o.) - PKD Vortex Project (A Tribute To The Dark Master Of Pulp Fiction) - 2001, FLAC (tracks+.cue), lossless

(Avant-Garde Jazz, Free Improvisation, Edgetone) [CDR] Rent Romus (w/ Joel Harrison, Tom Nunn a.o.) - PKD Vortex Project (A Tribute To The Dark Master Of Pulp Fiction) - 2001, FLAC (tracks+.cue), lossless
Треклист:
Rent Romus / PKD Vortex Project (A Tribute To The Dark Master Of Pulp Fiction)
Жанр: Avant-Garde Jazz, Free Improvisation, Edgetone
Носитель: CDR
Страна-производитель диска: US
Год издания: 2001
Издатель (лейбл): Edgetone Records
Номер по каталогу: EDT4003
Страна: US
Аудиокодек: FLAC (*.flac)
Тип рипа: tracks+.cue
Битрейт аудио: lossless
Продолжительность: 67:35
Источник (релизер): свой фирменный диск
Наличие сканов в содержимом раздачи:
Треклист:
1. Vortex PKD 8:07
2. Ape Of God 7:38
3. Third Eye 9:14
4. Nobody Likes The Anti-Septic Lady 8:28
5. March Of The 80 Foot Phils 11:25
6. Return Of The Wild Martian Fur 7:48
7. Quest For Reality Part 1 5:00
8. Quest For Reality Part 2 9:51
 
Лог создания рипа
Exact Audio Copy V1.0 beta 3 from 29. August 2011
EAC extraction logfile from 13. March 2014, 18:45
Rent Romus / PKD Vortex Project
Used drive : TSSTcorpCDDVDW SH-222AB Adapter: 1 ID: 0
Read mode : Secure
Utilize accurate stream : Yes
Defeat audio cache : Yes
Make use of C2 pointers : No
Read offset correction : 6
Overread into Lead-In and Lead-Out : No
Fill up missing offset samples with silence : Yes
Delete leading and trailing silent blocks : No
Null samples used in CRC calculations : Yes
Used interface : Installed external ASPI interface
Gap handling : Appended to previous track
Used output format : User Defined Encoder
Selected bitrate : 896 kBit/s
Quality : High
Add ID3 tag : No
Command line compressor : C:\Program Files\Exact Audio Copy\FLAC\FLAC.EXE
Additional command line options : -6 -V -T "ARTIST=%artist%" -T "TITLE=%title%" -T "ALBUM=%albumtitle%" -T "DATE=%year%" -T "TRACKNUMBER=%tracknr%" -T "GENRE=%genre%" -T "COMMENT=%comment%" -T "BAND=%albuminterpret%" -T "COMPOSER=%composer%" %haslyrics%--tag-from-file=LYRICS="%lyricsfile%"%haslyrics% -T "DISCNUMBER=%cdnumber%" -T "TOTALDISCS=%totalcds%" -T "TOTALTRACKS=%numtracks%" %hascover%--picture="%coverfile%"%hascover% %source% -o %dest%
TOC of the extracted CD
Track | Start | Length | Start sector | End sector
---------------------------------------------------------
1 | 0:00.00 | 8:07.34 | 0 | 36558
2 | 8:07.34 | 7:38.31 | 36559 | 70939
3 | 15:45.65 | 9:14.66 | 70940 | 112555
4 | 25:00.56 | 8:28.06 | 112556 | 150661
5 | 33:28.62 | 11:25.30 | 150662 | 202066
6 | 44:54.17 | 7:48.73 | 202067 | 237239
7 | 52:43.15 | 5:00.63 | 237240 | 259802
8 | 57:44.03 | 9:51.45 | 259803 | 304172
Track 1
Filename D:\zzz\01 - Vortex PKD.wav
Pre-gap length 0:00:02.00
Peak level 94.4 %
Extraction speed 3.0 X
Track quality 100.0 %
Test CRC D93835BC
Copy CRC D93835BC
Track not present in AccurateRip database
Copy OK
Track 2
Filename D:\zzz\02 - Ape Of God.wav
Pre-gap length 0:00:02.02
Peak level 94.4 %
Extraction speed 3.0 X
Track quality 100.0 %
Test CRC 3C9FBE6E
Copy CRC 3C9FBE6E
Track not present in AccurateRip database
Copy OK
Track 3
Filename D:\zzz\03 - Third Eye.wav
Pre-gap length 0:00:02.02
Peak level 94.4 %
Extraction speed 3.0 X
Track quality 100.0 %
Test CRC FE33B456
Copy CRC FE33B456
Track not present in AccurateRip database
Copy OK
Track 4
Filename D:\zzz\04 - Nobody Likes The Anti-Septic Lady.wav
Pre-gap length 0:00:02.02
Peak level 94.4 %
Extraction speed 3.0 X
Track quality 100.0 %
Test CRC 45CF57CB
Copy CRC 45CF57CB
Track not present in AccurateRip database
Copy OK
Track 5
Filename D:\zzz\05 - March Of The 80 Foot Phils.wav
Pre-gap length 0:00:02.02
Peak level 94.4 %
Extraction speed 3.0 X
Track quality 100.0 %
Test CRC 52C62806
Copy CRC 52C62806
Track not present in AccurateRip database
Copy OK
Track 6
Filename D:\zzz\06 - Return Of The Wild Martian Fur.wav
Pre-gap length 0:00:02.02
Peak level 94.4 %
Extraction speed 2.9 X
Track quality 100.0 %
Test CRC 005A7FEF
Copy CRC 005A7FEF
Track not present in AccurateRip database
Copy OK
Track 7
Filename D:\zzz\07 - Quest For Reality Part 1.wav
Pre-gap length 0:00:02.02
Peak level 94.4 %
Extraction speed 2.8 X
Track quality 100.0 %
Test CRC 204B3D88
Copy CRC 204B3D88
Track not present in AccurateRip database
Copy OK
Track 8
Filename D:\zzz\08 - Quest For Reality Part 2.wav
Pre-gap length 0:00:02.02
Peak level 94.4 %
Extraction speed 2.8 X
Track quality 99.9 %
Test CRC 30C3C225
Copy CRC 30C3C225
Track not present in AccurateRip database
Copy OK
None of the tracks are present in the AccurateRip database
No errors occurred
End of status report
==== Log checksum F6868BB26D315617AED0FD446FE3D271BA0B2B0069A1E8B53EE11A41EFD64BCC ====
 
Содержание индексной карты (.CUE)
REM GENRE "Avant-Garde Jazz"
REM DATE 2001
REM DISCID 6F0FD708
REM COMMENT "ExactAudioCopy v1.0b3"
PERFORMER "Rent Romus"
TITLE "PKD Vortex Project"
FILE "01 - Vortex PKD.wav" WAVE
TRACK 01 AUDIO
TITLE "Vortex PKD"
PERFORMER "Rent Romus"
INDEX 01 00:00:00
TRACK 02 AUDIO
TITLE "Ape Of God"
PERFORMER "Rent Romus"
INDEX 00 08:05:32
FILE "02 - Ape Of God.wav" WAVE
INDEX 01 00:00:00
TRACK 03 AUDIO
TITLE "Third Eye"
PERFORMER "Rent Romus"
INDEX 00 07:36:29
FILE "03 - Third Eye.wav" WAVE
INDEX 01 00:00:00
TRACK 04 AUDIO
TITLE "Nobody Likes The Anti-Septic Lady"
PERFORMER "Rent Romus"
INDEX 00 09:12:64
FILE "04 - Nobody Likes The Anti-Septic Lady.wav" WAVE
INDEX 01 00:00:00
TRACK 05 AUDIO
TITLE "March Of The 80 Foot Phils"
PERFORMER "Rent Romus"
INDEX 00 08:26:04
FILE "05 - March Of The 80 Foot Phils.wav" WAVE
INDEX 01 00:00:00
TRACK 06 AUDIO
TITLE "Return Of The Wild Martian Fur"
PERFORMER "Rent Romus"
INDEX 00 11:23:28
FILE "06 - Return Of The Wild Martian Fur.wav" WAVE
INDEX 01 00:00:00
TRACK 07 AUDIO
TITLE "Quest For Reality Part 1"
PERFORMER "Rent Romus"
INDEX 00 07:46:71
FILE "07 - Quest For Reality Part 1.wav" WAVE
INDEX 01 00:00:00
TRACK 08 AUDIO
TITLE "Quest For Reality Part 2"
PERFORMER "Rent Romus"
INDEX 00 04:58:61
FILE "08 - Quest For Reality Part 2.wav" WAVE
INDEX 01 00:00:00
 
Лог проверки качества
d:\>d:\aucdtect -d/-m0 d:\zzz\*.wav
auCDtect: CD records authenticity detector, version 0.8.2
Copyright (c) 2004 Oleg Berngardt. All rights reserved.
Copyright (c) 2004 Alexander Djourik. All rights reserved.
------------------------------------------------------------
Processing file: [01. Vortex PKD.wav]
------------------------------------------------------------
This track looks like CDDA with probability 62%
------------------------------------------------------------
Processing file: [02. Ape Of God.wav]
------------------------------------------------------------
This track looks like CDDA with probability 100%
------------------------------------------------------------
Processing file: [03. Third Eye.wav]
------------------------------------------------------------
This track looks like CDDA with probability 100%
------------------------------------------------------------
Processing file: [04. Nobody Likes The Anti-Septic Lady.wav]
------------------------------------------------------------
This track looks like CDDA with probability 100%
------------------------------------------------------------
Processing file: [05. March Of The 80 Foot Phils.wav]
------------------------------------------------------------
This track looks like CDDA with probability 99%
------------------------------------------------------------
Processing file: [06. Return Of The Wild Martian Fur.wav]
------------------------------------------------------------
This track looks like CDDA with probability 100%
------------------------------------------------------------
Processing file: [07. Quest For Reality Part 1.wav]
------------------------------------------------------------
This track looks like CDDA with probability 99%
------------------------------------------------------------
Processing file: [08. Quest For Reality Part 2.wav]
------------------------------------------------------------
This track looks like CDDA with probability 100%
------------------------------------------------------------
Final Conclusion:
------------------------------------------------------------
These tracks looks like CDDA with probability 100%
Доп. информация:
 
Album Info & AAJ Review
All compositions Rent Romus, except 2. written by Romus & C. McCaslin and 3. written by band.
Recorded live at the SF Community Music Center 9/19/98
Recorded live to DAT: Karen Stackpole
Mastering: Scott Looney
Special thanks to C. McCaslin without whom this project would never have existed.
Artwork: C.J. Reaven Borosque
Layout: Gert Rude Music Marketing
Always on the move, Rent Romus has gone after the "exploratory ethic of science fiction" with this quintet recording dedicated to author Philip K. Dick. The title track leads off with a swirling, mysterious darkness, proceeding gradually to a full-on dark nightmare assault. After the crescendo finally reaches its crest, the group turns on a dime to shifting polyrhythmic funk. The beauty of dedicating a recording to a writer with the imagination of Dick is that you earn the freedom to spin the music off in a hundred different directions, and that's what Romus and his quintet do on PKD Vortex Project.
Adding to the mystery and energy of this recording are three electric instruments, with all the range and color that amplification makes possible: Doug Carroll's electric cello (a full-fledged voice with surprising warmth), Joel Harrison's electric guitar (which bears the brunt of the load in many of these tunes), and Tom Nunn's "electro-acoustic inventions" (some percussive, some metallic, all weirdly reverberant). Unfortunately, one of these three people has a very noisy amp; and while some folks may regard background amp hiss as a musical statement, it regularly clutters the music here and distracts from its flow.
Of course the prime mover in the PKD Vortex Project, Rent Romus, is also its most outspoken exponent. He renders a range of sound on the alto and soprano saxophones which bears striking resemblance to the span of the human voice. Equally comfortable singing or squawking, fluttering or testifying, Romus dominates this music with his versatility and outspokenly articulate playing. Listeners familiar with the NRG Ensemble (post-Russell) will note a number of striking resemblances between the PKD Vortex Project and the two NRG records led by Ken Vandermark and Mars Williams. Both groups display a welcome disrespect for stylistic boundaries, and both push the limits through restless sonic exploration.
The fourth track on this disc, which leaps forward through a humor-drenched shout of "funky-funky, funky- funky," offers particular resemblance to the raucous spirit of the NRG Ensemble. But the PKD Vortex Project remains its own distinct entity of imagination and bold determination. As a tribute to the imagination of the "dark master of pulp fiction," this disc does Dick justice.
 
Состав
Vortexonauts:
Doug Carroll: electric cello
Joel Harrison: electric guitar
Dave Mihaly: drums & percussion
Tom Nunn: electro acoustic inventions
Rent Romus: alto & soprano saxes
По всем вопросам пишите личное сообщение пользователю M0p94ok.
00:47
171
Нет комментариев. Ваш будет первым!