Вы используете незарегистрированную версию компонента "Вкладки"!

Поиск

(Avant-Garde \ Free Funk) Music Revelation Ensemble (James Blood Ulmer) - Knights of Power - 1996(DIW), APE (image+.cue), lossless

(Avant-Garde \ Free Funk) Music Revelation Ensemble (James Blood Ulmer) - Knights of Power - 1996(DIW), APE (image+.cue), lossless
Треклист:
Music Revelation Ensemble (James Blood Ulmer) - Knights of Power - 1996, APE (image+.cue), lossless
Жанр: Avant-Garde \ Free Funk
Год выпуска диска: 1996
Производитель диска: DIW
Аудио кодек: APE
Тип рипа: image+.cue
Битрейт аудио: lossless
Продолжительность: 54:29
Трэклист:
1 The Scandal Monger (5:34)
2 The Day Of (7:55)
3 Convulsion (7:48)
4 Noise And Clamor (6:45)
5 The Elephant (9:47)
6 Father Of Flame (4:13)
7 Quarish (5:09)
8 Back Biter (7:17)
Cостав:
James Blood Ulmer (g)
Amin Ali (elc-b)
Cornell W.Rochester (ds)
featuringt:
Arthur Blythe (as -1,2,5,7)
Hamiet Bluiett (bs -3,4,6,8)
 
EAC log
Exact Audio Copy V0.99 prebeta 5 from 4. May 2009
Отчёт EAC об извлечении, выполненном 10. августа 2009, 23:44
Music Revelation Ensemble / Knights of Power
Дисковод: HL-DT-STDVDRAM GH20NS10 Adapter: 1 ID: 0
Режим чтения : Достоверность
Использование точного потока : Да
Отключение кэша аудио : Да
Использование указателей C2 : Нет
Коррекция смещения при чтении : 667
Способность читать области Lead-in и Lead-out : Нет
Заполнение пропущенных сэмплов тишиной : Да
Удаление блоков с тишиной в начале и конце : Нет
При вычислениях CRC использовались нулевые сэмплы : Да
Интерфейс : Установленный внешний ASPI-интерфейс
Выходной формат : Внутренние WAV-операции
Формат сэмплов : 44.100 Гц; 16 бит; стерео
TOC извлечённого CD
Трек | Старт | Длительность | Начальный сектор | Конечный сектор
---------------------------------------------------------------------
1 | 0:00.00 | 5:33.52 | 0 | 25026
2 | 5:33.52 | 7:55.30 | 25027 | 60681
3 | 13:29.07 | 7:48.35 | 60682 | 95816
4 | 21:17.42 | 6:44.68 | 95817 | 126184
5 | 28:02.35 | 9:46.72 | 126185 | 170206
6 | 37:49.32 | 4:12.70 | 170207 | 189176
7 | 42:02.27 | 5:09.28 | 189177 | 212379
8 | 47:11.55 | 7:17.15 | 212380 | 245169
Характеристики диапазона извлечения и сообщения об ошибках
Выбранный диапазон
Имя файла E:\Музыка\Записи\Новая папка\Music Revelation Ensemble - Knights of Power.wav
Пиковый уровень 96.6 %
Качество диапазона 100.0 %
CRC копии D0642CCC
Копирование... OK
Ошибок не произошло
AccurateRip: сводка
Трек 1 точное извлечение (доверие 2) [51E78854]
Трек 2 точное извлечение (доверие 2) [E67FC4B1]
Трек 3 точное извлечение (доверие 2) [FBB4B93F]
Трек 4 точное извлечение (доверие 2) [5A7EE98D]
Трек 5 точное извлечение (доверие 2) [D2E8743A]
Трек 6 точное извлечение (доверие 2) [2A85E177]
Трек 7 точное извлечение (доверие 2) [ADC564EC]
Трек 8 точное извлечение (доверие 2) [FE4EBFC9]
Все треки извлечены точно
Конец отчёта
Any questions -> support@pro-jazz.com. По всем вопросам пишите -> support@pro-jazz.com
13:26
183
Нет комментариев. Ваш будет первым!