Вы используете незарегистрированную версию компонента "Вкладки"!

Поиск

(Modern Creative, Post-Bop, Avant-Garde Jazz) Ellery Eskelin - One Great Day - 1996, APE (image+.cue), lossless

(Modern Creative, Post-Bop, Avant-Garde Jazz) Ellery Eskelin - One Great Day - 1996, APE (image+.cue), lossless
Треклист:
Ellery Eskelin - One Great Day
Жанр: Modern Creative, Post-Bop, Avant-Garde Jazz
Год выпуска диска: 1996
Производитель диска: hatOLOGY, Switzerland
Аудио кодек: APE
Тип рипа: image+.cue
Битрейт аудио: lossless
Продолжительность: 1:08:47
Трэклист:
1 One Great Day... 0:08:43
2 Vertical Hold 0:10:32
3 T64K37B 0:04:24
4 Too Much Orange 0:10:06
5 Fallen Angel 0:09:19
6 The Inflated Tear 0:12:58
7 Side Effects 0:12:38
Доп. информация:
Recording Date - Sep 30, 1996
Eskelin, Ellery (Tenor Saxophone)
Andrea Parkins (Accordion)
Jim Black (Percussion)
 
Review
In the liner notes saxophonist, composer, and bandleader Ellery Eskelin explains that oftentimes he finds the recording studio the best medium for "this" music. The audience cannot with their chatter or mood disturb the process of making the music. However, Eskelin is a man who seems to be willing to admit that he can be wrong, both about audiences and his music's best performing medium: This is a live date from the end of the band's first European tour. And this is among his most beautiful records. This band with Andrea Parkins, on an accordion that can do and sound like most anything (as well as her sampler!), and percussion giant Jim Black has been together for a while, and here it shows how symbiotic their relationship is when it comes to not only performing Eskelin's own work, but Roland Kirk's classic "The Inflated Tear." Coming from Baltimore, Eskelin's compositions have much in common with fellow Baltimorean John Waters' films. They mine the tradition for its contradictions and use those as a place to build something new that can only be marked with an individual signature. Eskelin's pieces here, such as the title track, move from a post-bop modality through TV music and melodies respectfully cribbed from Frank Zappa. The syncopation Eskelin employs between his harmonic structures and melodies keeps the listener off his or her feet throughout the work, where surprise is constant, but welcoming. On "Vertical Hold," you hear Eskelin's improvisational voice entering in the guise of his bandmates. Black uses his kit but he also peruses his gig bag for hand-held objects of use as Parkins moves from one sinewy chord voicing to another on the accordion before the entire band snaps out of it and moves into Neal Hefti-esque TV music mode. The chords and repetition create the familiar space for another shift — this one gradual, to the band moving into free improvisation territory without seeming to have moved from where they were. Unless close attention is paid, you never hear it coming; it's truly wondrous. And Eskelin can compose and play a ballad with the best of them. "Fallen Angel," with Black's playing on the wood of his tom toms is a moving ballad, touched by film noir and Parkins' informing it with Italian tarantella. The soft swing in the front of the tune gives way to a harmonic body where Parkins' microtonality actually creates over tonal ambience and texture that opens up an enormous space on the inside of the tune. Eskelin keeps his playing in the blues as Black and Parkins move through the dark cinema together. It's gorgeous. If you're still reading and wondering about Kirk's piece? You'll have to hear it for yourself to really know how fine an interpretation it is. Eskelin has been on a roll for years now, and shows no signs of slowing down. This is one of America's truly great offerings to the music of the world. Just buy this.
-Thom Jurek
 
EAC LOG
Exact Audio Copy V0.99 prebeta 4 from 23. January 2008
Отчёт EAC об извлечении, выполненном 6. мая 2009, 14:51
Ellery Eskelin / One Great Day
Дисковод: TSSTcorpCDDVDW SH-S203D Adapter: 3 ID: 0
Режим чтения : Достоверность
Использование точного потока : Да
Отключение кэша аудио : Да
Использование указателей C2 : Нет
Коррекция смещения при чтении : 6
Способность читать области Lead-in и Lead-out : Нет
Заполнение пропущенных сэмплов тишиной : Да
Удаление блоков с тишиной в начале и конце : Нет
При вычислениях CRC использовались нулевые сэмплы : Да
Интерфейс : Установленный внешний ASPI-интерфейс
Выходной формат : Внутренние WAV-операции
Формат сэмплов : 44.100 Гц; 16 бит; стерео
TOC извлечённого CD
Трек | Старт | Длительность | Начальный сектор | Конечный сектор
---------------------------------------------------------------------
1 | 0:00.00 | 8:43.62 | 0 | 39286
2 | 8:43.62 | 10:32.00 | 39287 | 86686
3 | 19:15.62 | 4:24.00 | 86687 | 106486
4 | 23:39.62 | 10:06.00 | 106487 | 151936
5 | 33:45.62 | 9:19.00 | 151937 | 193861
6 | 43:04.62 | 12:58.00 | 193862 | 252211
7 | 56:02.62 | 12:38.13 | 252212 | 309074
Характеристики диапазона извлечения и сообщения об ошибках
Выбранный диапазон
Имя файла F:\FOS\Music\ELLERY ESKELIN\Ellery Eskelin - One Great Day\Ellery Eskelin - One Great Day.wav
Пиковый уровень 92.6 %
Качество диапазона 100.0 %
CRC копии 27444DF9
Копирование... OK
Ошибок не произошло
Конец отчёта
Any questions -> support@pro-jazz.com. По всем вопросам пишите -> support@pro-jazz.com
13:26
182
Нет комментариев. Ваш будет первым!