Вы используете незарегистрированную версию компонента "Вкладки"!

Поиск

(experimental, free-jazz, avant-garde) Joey Baron, Arthur Blythe, Ron Carter, Bill Frisell - We'll Soon Find Out - 1999, FLAC (image+.cue), lossless

(experimental, free-jazz, avant-garde) Joey Baron, Arthur Blythe, Ron Carter, Bill Frisell - We'll Soon Find Out - 1999, FLAC (image+.cue), lossless
Треклист:
Joey Baron, Arthur Blythe, Ron Carter, Bill Frisell - We'll Soon Find Out
Жанр: experimental, free-jazz, avant-garde
Год выпуска диска: 1999
Производитель диска: EU
Аудио кодек: FLAC
Тип рипа: image+.cue
Битрейт аудио: lossless
Продолжительность: 54'10"
Трэклист:
01. Slow Charleston
02. Closer Than You Think
03. Junior
04. Time To Cry
05. Wisely
06. Bit O' Water
07. M
08. Equaled
09. Contact
Доп. информация: Рип с оригинального CD.
 
Лог EAC
Exact Audio Copy V0.99 prebeta 4 from 23. January 2008
Отчёт EAC об извлечении, выполненном 11. августа 2009, 22:22
Joey Baron / We'll Soon Find Out
Дисковод: MATSHITADVD-RAM UJ-852S Adapter: 0 ID: 0
Режим чтения : Достоверность
Использование точного потока : Да
Отключение кэша аудио : Да
Использование указателей C2 : Нет
Коррекция смещения при чтении : 102
Способность читать области Lead-in и Lead-out : Нет
Заполнение пропущенных сэмплов тишиной : Да
Удаление блоков с тишиной в начале и конце : Нет
При вычислениях CRC использовались нулевые сэмплы : Да
Интерфейс : Встроенный Win32-интерфейс для Win NT/2000
Выходной формат : Внутренние WAV-операции
Формат сэмплов : 44.100 Гц; 16 бит; стерео
Смещение при сжатии : 0
TOC извлечённого CD
Трек | Старт | Длительность | Начальный сектор | Конечный сектор
---------------------------------------------------------------------
1 | 0:00.00 | 6:09.35 | 0 | 27709
2 | 6:09.35 | 7:49.60 | 27710 | 62944
3 | 13:59.20 | 5:52.60 | 62945 | 89404
4 | 19:52.05 | 6:25.47 | 89405 | 118326
5 | 26:17.52 | 5:43.58 | 118327 | 144109
6 | 32:01.35 | 3:35.67 | 144110 | 160301
7 | 35:37.27 | 7:04.58 | 160302 | 192159
8 | 42:42.10 | 4:22.30 | 192160 | 211839
9 | 47:04.40 | 7:05.02 | 211840 | 243716
Характеристики диапазона извлечения и сообщения об ошибках
Выбранный диапазон
Имя файла C:\Users\Igot\Music\_MOI RAZDACHI\Joey Baron - We'll Soon Find Out\Joey Baron - We'll Soon Find Out.wav
Пиковый уровень 99.9 %
Качество диапазона 99.9 %
CRC копии 37F42102
Копирование... OK
Ошибок не произошло
Конец отчёта
Any questions -> support@pro-jazz.com. По всем вопросам пишите -> support@pro-jazz.com
13:27
247
Нет комментариев. Ваш будет первым!