Вы используете незарегистрированную версию компонента "Вкладки"!

Поиск

(avant-garde, experimental, ethnic) [cd] Andy Haas - Paradise of Ashes 2011, FLAC (tracks+.cue), lossless

(avant-garde, experimental, ethnic) [cd] Andy Haas - Paradise of Ashes 2011, FLAC (tracks+.cue), lossless
Треклист:


Andy Haas - Paradise of Ashes 2011

Жанр: avant-garde, experimental, ethnic
Год выпуска: 2011
Издатель (лейбл):Resonant Music / resonantmusic 008
Формат: FLAC (tracks+.cue)
Битрейт аудио: lossless
Продолжительность 40`27
Источник: what.cd, weareborg

tracks
1. New Maladies of the Soul 3:29
2. Cup of Loneliness 2:42
3. In the Wee Small Hours of the Morning 3:14
4. You Are My Life 3:42
5. My Life Would Suck Without You 3:07
6. Leave it to G-D 2:57
7. Red Bridge 2:26
8. The Devil is Loose in the World 3:05
9. Paradise of Ashes 3:26
10. Everytime We Say Goodbye 3:19
11. Bonjour Tristesse 3:04 12. It's Only a Paper Moon 5:48


 
.log
Exact Audio Copy V1.0 beta 1 from 15. November 2010
EAC extraction logfile from 12. January 2011, 17:49
Andy Haas / Paradise of Ashes
Used drive : PHILIPS DVD-ROM DROM6316 Adapter: 1 ID: 0
Read mode : Secure
Utilize accurate stream : Yes
Defeat audio cache : Yes
Make use of C2 pointers : No
Read offset correction : 6
Overread into Lead-In and Lead-Out : No
Fill up missing offset samples with silence : Yes
Delete leading and trailing silent blocks : No
Null samples used in CRC calculations : Yes
Used interface : Native Win32 interface for Win NT & 2000
Gap handling : Appended to previous track
Used output format : User Defined Encoder
Selected bitrate : 896 kBit/s
Quality : High
Add ID3 tag : No
Command line compressor : C:\Program Files\Exact Audio Copy\Flac\flac.exe
Additional command line options : -V -8 -T "artist=%a" -T "title=%t" -T "album=%g" -T "date=%y" -T "tracknumber=%n" -T "genre=%m" %s
TOC of the extracted CD
Track | Start | Length | Start sector | End sector
---------------------------------------------------------
1 | 0:00.00 | 3:29.41 | 0 | 15715
2 | 3:29.41 | 2:42.57 | 15716 | 27922
3 | 6:12.23 | 3:14.56 | 27923 | 42528
4 | 9:27.04 | 3:42.51 | 42529 | 59229
5 | 13:09.55 | 3:07.62 | 59230 | 73316
6 | 16:17.42 | 2:57.53 | 73317 | 86644
7 | 19:15.20 | 2:26.36 | 86645 | 97630
8 | 21:41.56 | 3:05.54 | 97631 | 111559
9 | 24:47.35 | 3:26.17 | 111560 | 127026
10 | 28:13.52 | 3:19.64 | 127027 | 142015
11 | 31:33.41 | 3:04.59 | 142016 | 155874
12 | 34:38.25 | 5:48.49 | 155875 | 182023
Track 1
Filename E:\JonBStudiosessions\Andy Haas\Andy Haas - Paradise of Ashes [FLAC]\01. New Maladies of the Soul.wav
Pre-gap length 0:00:02.00
Peak level 100.0 %
Extraction speed 1.5 X
Track quality 99.9 %
Test CRC 1CC38BF8
Copy CRC 1CC38BF8
Track not present in AccurateRip database
Copy OK
Track 2
Filename E:\JonBStudiosessions\Andy Haas\Andy Haas - Paradise of Ashes [FLAC]\02. Cup of Loneliness.wav
Peak level 98.9 %
Extraction speed 1.8 X
Track quality 100.0 %
Test CRC D7AD8DEF
Copy CRC D7AD8DEF
Track not present in AccurateRip database
Copy OK
Track 3
Filename E:\JonBStudiosessions\Andy Haas\Andy Haas - Paradise of Ashes [FLAC]\03. In the Wee Small Hours of the Morning.wav
Peak level 99.0 %
Extraction speed 2.0 X
Track quality 100.0 %
Test CRC 090B0DF1
Copy CRC 090B0DF1
Track not present in AccurateRip database
Copy OK
Track 4
Filename E:\JonBStudiosessions\Andy Haas\Andy Haas - Paradise of Ashes [FLAC]\04. Enta Omri (You Are My Life).wav
Peak level 99.1 %
Extraction speed 2.1 X
Track quality 100.0 %
Test CRC 6F6E4FCA
Copy CRC 6F6E4FCA
Track not present in AccurateRip database
Copy OK
Track 5
Filename E:\JonBStudiosessions\Andy Haas\Andy Haas - Paradise of Ashes [FLAC]\05. My Life Would Suck Wihtout You.wav
Pre-gap length 0:00:02.00
Peak level 99.0 %
Extraction speed 2.2 X
Track quality 100.0 %
Test CRC D7C3579D
Copy CRC D7C3579D
Track not present in AccurateRip database
Copy OK
Track 6
Filename E:\JonBStudiosessions\Andy Haas\Andy Haas - Paradise of Ashes [FLAC]\06. Khalliha Alallah (Leave It to G-D).wav
Pre-gap length 0:00:00.74
Peak level 100.0 %
Extraction speed 2.3 X
Track quality 100.0 %
Test CRC BC62997B
Copy CRC BC62997B
Track not present in AccurateRip database
Copy OK
Track 7
Filename E:\JonBStudiosessions\Andy Haas\Andy Haas - Paradise of Ashes [FLAC]\07. Akai Hashi (Red Bridge).wav
Pre-gap length 0:00:01.00
Peak level 98.9 %
Extraction speed 2.3 X
Track quality 100.0 %
Test CRC 31655282
Copy CRC 31655282
Track not present in AccurateRip database
Copy OK
Track 8
Filename E:\JonBStudiosessions\Andy Haas\Andy Haas - Paradise of Ashes [FLAC]\08. The Devil is Loose in the World.wav
Pre-gap length 0:00:02.00
Peak level 99.2 %
Extraction speed 2.5 X
Track quality 100.0 %
Test CRC BAE2851C
Copy CRC BAE2851C
Track not present in AccurateRip database
Copy OK
Track 9
Filename E:\JonBStudiosessions\Andy Haas\Andy Haas - Paradise of Ashes [FLAC]\09. Paradise of Ashes.wav
Pre-gap length 0:00:02.00
Peak level 99.2 %
Extraction speed 2.3 X
Track quality 99.9 %
Test CRC 8E252FC9
Copy CRC 8E252FC9
Track not present in AccurateRip database
Copy OK
Track 10
Filename E:\JonBStudiosessions\Andy Haas\Andy Haas - Paradise of Ashes [FLAC]\10. Everytime We Say Goodbye.wav
Pre-gap length 0:00:01.00
Peak level 99.2 %
Extraction speed 2.7 X
Track quality 100.0 %
Test CRC FB1A177C
Copy CRC FB1A177C
Track not present in AccurateRip database
Copy OK
Track 11
Filename E:\JonBStudiosessions\Andy Haas\Andy Haas - Paradise of Ashes [FLAC]\11. Bonjour Tristesse.wav
Pre-gap length 0:00:02.00
Peak level 99.0 %
Extraction speed 2.8 X
Track quality 100.0 %
Test CRC 0F60C32E
Copy CRC 0F60C32E
Track not present in AccurateRip database
Copy OK
Track 12
Filename E:\JonBStudiosessions\Andy Haas\Andy Haas - Paradise of Ashes [FLAC]\12. It's Only a Paper Moon.wav
Pre-gap length 0:00:02.00
Peak level 98.9 %
Extraction speed 3.2 X
Track quality 100.0 %
Test CRC B3899D36
Copy CRC B3899D36
Track not present in AccurateRip database
Copy OK
None of the tracks are present in the AccurateRip database
No errors occurred
End of status report
==== Log checksum 5304A3E75C22025E74CB8A4DFD4EED2A7DB74045226464F294067FE5432F9F78 ====
 
.cue
REM GENRE "Avant Jazz"
REM DATE 2011
REM DISCID B3097A0C
REM COMMENT "ExactAudioCopy v1.0b1"
FILE "01. New Maladies of the Soul.wav" WAVE
TRACK 01 AUDIO
INDEX 01 00:00:00
FILE "02. Cup of Loneliness.wav" WAVE
TRACK 02 AUDIO
INDEX 01 00:00:00
FILE "03. In the Wee Small Hours of the Morning.wav" WAVE
TRACK 03 AUDIO
INDEX 01 00:00:00
FILE "04. Enta Omri (You Are My Life).wav" WAVE
TRACK 04 AUDIO
INDEX 01 00:00:00
TRACK 05 AUDIO
INDEX 00 03:40:51
FILE "05. My Life Would Suck Wihtout You.wav" WAVE
INDEX 01 00:00:00
TRACK 06 AUDIO
INDEX 00 03:06:63
FILE "06. Khalliha Alallah (Leave It to G-D).wav" WAVE
INDEX 01 00:00:00
TRACK 07 AUDIO
INDEX 00 02:56:53
FILE "07. Akai Hashi (Red Bridge).wav" WAVE
INDEX 01 00:00:00
TRACK 08 AUDIO
INDEX 00 02:24:36
FILE "08. The Devil is Loose in the World.wav" WAVE
INDEX 01 00:00:00
TRACK 09 AUDIO
INDEX 00 03:03:54
FILE "09. Paradise of Ashes.wav" WAVE
INDEX 01 00:00:00
TRACK 10 AUDIO
INDEX 00 03:25:17
FILE "10. Everytime We Say Goodbye.wav" WAVE
INDEX 01 00:00:00
TRACK 11 AUDIO
INDEX 00 03:17:64
FILE "11. Bonjour Tristesse.wav" WAVE
INDEX 01 00:00:00
TRACK 12 AUDIO
INDEX 00 03:02:59
FILE "12. It's Only a Paper Moon.wav" WAVE
INDEX 01 00:00:00
 
.accurip
[CUETools log; Date: 17/06/14 15:06:06; Version: 2.1.4]
[AccurateRip ID: 00111cd5-009ff237-b3097a0c] found.
Track [ CRC | V2 ] Status
01 [173aaa41|74e10a3d] (0+1/1) Accurately ripped
02 [cf6b2a9e|8c843211] (0+1/1) Accurately ripped
03 [988d8101|32f693db] (0+1/1) Accurately ripped
04 [f6f858c4|1ec7b80e] (0+1/1) Accurately ripped
05 [ad67f5c0|1ee93a37] (0+1/1) Accurately ripped
06 [aef23e1d|d1ee45e6] (0+1/1) Accurately ripped
07 [9d1fe909|1db86295] (0+1/1) Accurately ripped
08 [d7cc0513|d2162c0c] (0+1/1) Accurately ripped
09 [3aa02154|480132ac] (0+1/1) Accurately ripped
10 [4c3e99fd|4a29586f] (0+1/1) Accurately ripped
11 [50d67478|8ea7d2d9] (0+1/1) Accurately ripped
12 [59a209e3|a24a123b] (0+1/1) Accurately ripped
Track Peak [ CRC32 ] [W/O NULL] [ LOG ]
-- 100.0 [6EED3CEA] [C4968090]
01 100.0 [1CC38BF8] [F7A77ED1] CRC32
02 98.9 [D7AD8DEF] [24FE0DA3] CRC32
03 99.0 [090B0DF1] [1E6217CC] CRC32
04 99.1 [6F6E4FCA] [7BE509A1] CRC32
05 99.0 [D7C3579D] [35CF8166] CRC32
06 100.0 [BC62997B] [4ABF1F3E] CRC32
07 98.9 [31655282] [8E519AC0] CRC32
08 99.2 [BAE2851C] [C100D73E] CRC32
09 99.2 [8E252FC9] [BD4753E7] CRC32
10 99.2 [FB1A177C] [1679EB7A] CRC32
11 99.0 [0F60C32E] [083D55E5] CRC32
12 98.9 [B3899D36] [C4E0F112] CRC32

другие релизы
По всем вопросам пишите личное сообщение пользователю M0p94ok.
02:47
189
Нет комментариев. Ваш будет первым!