Вы используете незарегистрированную версию компонента "Вкладки"!

Поиск

(Avant-Garde Jazz, Free Improvisation) [CD] Rodrigo Amado Wire Quartet - Rodrigo Amado Wire Quartet - 2014, FLAC (tracks+.cue), lossless

(Avant-Garde Jazz, Free Improvisation) [CD] Rodrigo Amado Wire Quartet - Rodrigo Amado Wire Quartet - 2014, FLAC (tracks+.cue), lossless
Треклист:
RODRIGO AMADO
WIRE QUARTET
Жанр: Avant-Garde Jazz, Free Improvisation
Страна-производитель диска: Portugal
Год издания: 2014
Издатель (лейбл): Clean Feed
Номер по каталогу: CF297
Аудиокодек: FLAC (*.flac)
Тип рипа: tracks+.cue
Битрейт аудио: lossless
Продолжительность: 49:05
Источник (релизер): спасибо 6060842
Наличие сканов в содержимом раздачи: нет
Треклист:
1. Abandon Yourself
2. Surrender
3. To The Music
 
Лог создания рипа
X Lossless Decoder version 20140504 (147.0)
XLD extraction logfile from 2014-06-06 23:50:44 +0400
Rodrigo Amado Wire Quartet / Rodrigo Amado Wire Quartet
Used drive : HL-DT-ST DVDRW GX30N (revision RP09)
Media type : Pressed CD
Ripper mode : XLD Secure Ripper
Disable audio cache : OK for the drive with a cache less than 1375KiB
Make use of C2 pointers : NO
Read offset correction : 6
Max retry count : 100
Gap status : Analyzed, Appended (except HTOA)
TOC of the extracted CD
Track | Start | Length | Start sector | End sector
---------------------------------------------------------
1 | 00:00:00 | 28:01:09 | 0 | 126083
2 | 28:01:09 | 08:20:74 | 126084 | 163657
3 | 36:22:08 | 13:09:71 | 163658 | 222903
AccurateRip Summary (DiscID: 0007d286-0018f1c7-230b9c03)
Track 01 : OK (v2, confidence 1/1)
Track 02 : OK (v2, confidence 1/1)
Track 03 : NG (total 1 submission)
->2 tracks accurately ripped, 1 track not
All Tracks
Album gain : -6.28 dB
Peak : 0.991943
Statistics
Read error : 0
Jitter error (maybe fixed) : 0
Retry sector count : 0
Damaged sector count : 0
Track 01
Filename : /Users/Shared/Grabbed/Rodrigo Amado Wire Quartet - 2014 - Rodrigo Amado Wire Quartet [MP3 320]/01 - Abandon Yourself.mp3
/Users/Shared/Grabbed/Rodrigo Amado Wire Quartet - 2014 - Rodrigo Amado Wire Quartet [MP3 V0]/01 - Abandon Yourself.mp3
/Users/Shared/Grabbed/Rodrigo Amado Wire Quartet - 2014 - Rodrigo Amado Wire Quartet [FLAC]/01 - Abandon Yourself.flac
Pre-gap length : 00:02:00
Track gain : -5.89 dB
Peak : 0.991943
CRC32 hash (test run) : 0EED2BC7
CRC32 hash : 0EED2BC7
CRC32 hash (skip zero) : 056D324F
AccurateRip v1 signature : 2A34403E
AccurateRip v2 signature : F22A32A2
->Accurately ripped (v2, confidence 1/1)
Statistics
Read error : 0
Jitter error (maybe fixed) : 0
Retry sector count : 0
Damaged sector count : 0
Track 02
Filename : /Users/Shared/Grabbed/Rodrigo Amado Wire Quartet - 2014 - Rodrigo Amado Wire Quartet [MP3 320]/02 - Surrender.mp3
/Users/Shared/Grabbed/Rodrigo Amado Wire Quartet - 2014 - Rodrigo Amado Wire Quartet [MP3 V0]/02 - Surrender.mp3
/Users/Shared/Grabbed/Rodrigo Amado Wire Quartet - 2014 - Rodrigo Amado Wire Quartet [FLAC]/02 - Surrender.flac
Pre-gap length : 00:02:00
Track gain : -6.66 dB
Peak : 0.991943
CRC32 hash (test run) : FF3B8C47
CRC32 hash : FF3B8C47
CRC32 hash (skip zero) : 1CC35CC2
AccurateRip v1 signature : EDF25BB6
AccurateRip v2 signature : 73600CFF
->Accurately ripped (v2, confidence 1/1)
Statistics
Read error : 0
Jitter error (maybe fixed) : 0
Retry sector count : 0
Damaged sector count : 0
Track 03
Filename : /Users/Shared/Grabbed/Rodrigo Amado Wire Quartet - 2014 - Rodrigo Amado Wire Quartet [MP3 320]/03 - To the Music.mp3
/Users/Shared/Grabbed/Rodrigo Amado Wire Quartet - 2014 - Rodrigo Amado Wire Quartet [MP3 V0]/03 - To the Music.mp3
/Users/Shared/Grabbed/Rodrigo Amado Wire Quartet - 2014 - Rodrigo Amado Wire Quartet [FLAC]/03 - To the Music.flac
Pre-gap length : 00:02:00
Track gain : -6.64 dB
Peak : 0.991943
CRC32 hash (test run) : 5E11294C
CRC32 hash : 5E11294C
CRC32 hash (skip zero) : FC0A12C4
AccurateRip v1 signature : 062A4375
AccurateRip v2 signature : C0A8B47E
->Rip may not be accurate (total 1 submission).
Statistics
Read error : 0
Jitter error (maybe fixed) : 0
Retry sector count : 0
Damaged sector count : 0
No errors occurred
End of status report
-----BEGIN XLD SIGNATURE-----
4g2Q07ntuj3ZULvpgktnQukdcop9ctHctMF6dCrFPwEne.qroY4f2q55n0iSMYNkTAtjfyMxoE2XrmnlpmNTkZQiyakDpfXreXF4SEC
-----END XLD SIGNATURE-----
 
Содержание индексной карты (.CUE)
TITLE "Rodrigo Amado Wire Quartet"
PERFORMER "Rodrigo Amado Wire Quartet"
CATALOG 5609063002973
REM GENRE "Free Jazz"
REM DATE "2014"
REM DISCNUMBER 1
REM TOTALDISCS 1
REM DISCID 230B9C03
REM REPLAYGAIN_ALBUM_GAIN -6.28 dB
REM REPLAYGAIN_ALBUM_PEAK 0.991943
FILE "01 - Abandon Yourself.flac" WAVE
TRACK 01 AUDIO
TITLE "Abandon Yourself"
ISRC PTNF11409051
REM REPLAYGAIN_TRACK_GAIN -5.89 dB
REM REPLAYGAIN_TRACK_PEAK 0.991943
INDEX 01 00:00:00
TRACK 02 AUDIO
TITLE "Surrender"
ISRC PTNF11409052
REM REPLAYGAIN_TRACK_GAIN -6.66 dB
REM REPLAYGAIN_TRACK_PEAK 0.991943
INDEX 00 27:59:09
FILE "02 - Surrender.flac" WAVE
INDEX 01 00:00:00
TRACK 03 AUDIO
TITLE "To the Music"
ISRC PTNF11409053
REM REPLAYGAIN_TRACK_GAIN -6.64 dB
REM REPLAYGAIN_TRACK_PEAK 0.991943
INDEX 00 08:18:74
FILE "03 - To the Music.flac" WAVE
INDEX 01 00:00:00
 
Об альбоме
It is possible that Portuguese saxophonist Rodrigo Amado's earlier releases caught your attention because of the names of his playing partners. Chicago trombonist Jeb Bishop recorded two discs with Amado's Motion Trio, The Flame Alphabet (Not Two, 2012) and Burning Live At Jazz AO Centro (JACC Records, 2012). There was also Searching For Adam (Not Two, 2010) with cornetist Taylor Ho Bynum, drummer Gerald Cleaver, and bassist John Hébert and The Abstract Truth (European Echoes, 2009) with bassist Kent Kessler, and drummer Paal Nilssen-Love. Obviously, he keeps good company, like bassist Ken Filiano, guitarist Luis Lopes, and trumpeter Peter Evans.
With that curriculum vitae, his working bands sans guests, are worthy recorded outings. Here we find Amado's Wire Quartet, which is made up of two-thirds of the RED Trio, drummer Gabriel Ferrandini and bassist Hernani Faustino, who also perform with saxophonist Nobuyasu Furuya. The fourth member is guitarist Manuel Mota, who has collaborated with the likes of Noël Akchoté and Toshimaru Nakamura.
The three pieces presented have a nonchalance about them. The quartet strips away the requirement for excessive bravado and musical macho often heard in free jazz. It's not that they don't rev their engines, it just that they appear to have no need to beat each other (or the listener's ears) into submission. The opening track, "Abandon Yourself," saunters in on Amado's tenor and Mota's guitar sounding like mellowed and less frenetic versions of Evan Parker and Derek Bailey. Amado prefers a blues thread running through his sustained solos. The quartet picks up the pace fueled by Ferrandini's merry- go-round of percussive activity. But even at its most frenetic, the fever of this band is manageable and controlled by the players. Half way through, the band pulls the brakes for some introspective exploration. Amado serves some hushed, overblown tenor and Faustino bows clement bass passages—all entirely within the structure of the piece. The remaining two pieces, both much shorter in length, continue the ennobled theme. This quartet has no need to invite guests musicians to draw attention to their most excellent music making. (Mark Corroto, AllAboutJazz)
 
Состав

Rodrigo Amado - tenor saxophone
Manuel Mota - electric guitar
Hernani Faustino - double bass
Gabriel Ferandini - drums
По всем вопросам пишите личное сообщение пользователю M0p94ok.
02:47
185
Нет комментариев. Ваш будет первым!