Вы используете незарегистрированную версию компонента "Вкладки"!

Поиск

(Avant-Garde, Post-Bop, CIMP) [CD] Paul Smoker Trio (Steve Salerno, Ken Filiano) - Mirabile Dictu - 2001, FLAC (tracks+.cue), lossless

(Avant-Garde, Post-Bop, CIMP) [CD] Paul Smoker Trio (Steve Salerno, Ken Filiano) - Mirabile Dictu - 2001, FLAC (tracks+.cue), lossless
Треклист:
Paul Smoker Trio / Mirabile Dictu
Жанр: Avant-Garde, Post-Bop
Носитель: CD
Страна-производитель диска: U.S.A.
Год издания: 2001
Издатель (лейбл): CIMP
Номер по каталогу: #233
Аудиокодек: FLAC (*.flac)
Тип рипа: tracks+.cue
Битрейт аудио: lossless
Продолжительность: 1:02:02
Источник (релизер): я
Наличие сканов в содержимом раздачи: да
Треклист:
1. Open Season 11:21
2. Mirabile Dictu (Steve Salerno) 11:15
3. Elegy (for Lester Bowie) 7:51
4. See How They Run 15:47
5. Peccadillos (Ken Filiano) 12:21
6. The Meaning of the Blues (Bobby Troup / Leah Worth) 3:28
Compositions & arrangements by Paul Smoker except where otherwise noted.
Recorded at The Spirit Room, Rossie, NY, September 18 & 19, 2000.
Paul Smoker – Trumpet
Steve Salerno – Guitar
Ken Filiano – Bass
 
Лог создания рипа
Exact Audio Copy V1.0 beta 3 from 29. August 2011
EAC extraction logfile from 17. June 2014, 13:15
Paul Smoker Trio / Mirabile Dictu
Used drive : SlimtypeeNAU508 5 Adapter: 1 ID: 0
Read mode : Secure
Utilize accurate stream : Yes
Defeat audio cache : Yes
Make use of C2 pointers : No
Read offset correction : 6
Overread into Lead-In and Lead-Out : No
Fill up missing offset samples with silence : Yes
Delete leading and trailing silent blocks : No
Null samples used in CRC calculations : Yes
Used interface : Native Win32 interface for Win NT & 2000
Gap handling : Appended to previous track
Used output format : User Defined Encoder
Selected bitrate : 768 kBit/s
Quality : High
Add ID3 tag : No
Command line compressor : C:\Program Files (x86)\Exact Audio Copy\Flac\flac.exe
Additional command line options : -8 -V -T "ARTIST=%artist%" -T "TITLE=%title%" -T "ALBUM=%albumtitle%" -T "DATE=%year%" -T "TRACKNUMBER=%tracknr%" -T "TOTALTRACKS=%numtracks%" -T "GENRE=%genre%" -T "ALBUMARTIST=%albumartist%" -T "ALBUM ARTIST=%albumartist%" -T "COMMENT=EAC Secure Mode, Test & Copy, AccurateRip, FLAC -8" %source%
TOC of the extracted CD
Track | Start | Length | Start sector | End sector
---------------------------------------------------------
1 | 0:00.00 | 11:21.11 | 0 | 51085
2 | 11:21.11 | 11:15.05 | 51086 | 101715
3 | 22:36.16 | 7:50.59 | 101716 | 137024
4 | 30:27.00 | 15:46.39 | 137025 | 208013
5 | 46:13.39 | 12:21.21 | 208014 | 263609
6 | 58:34.60 | 3:27.52 | 263610 | 279186
Track 1
Filename C:\EAC rips\01 - Open Season.wav
Pre-gap length 0:00:02.00
Peak level 66.7 %
Extraction speed 2.5 X
Track quality 100.0 %
Test CRC 7034BDB8
Copy CRC 7034BDB8
Track not present in AccurateRip database
Copy OK
Track 2
Filename C:\EAC rips\02 - Mirabile Dictu.wav
Pre-gap length 0:00:03.57
Peak level 63.7 %
Extraction speed 3.1 X
Track quality 100.0 %
Test CRC 6A57F0C2
Copy CRC 6A57F0C2
Track not present in AccurateRip database
Copy OK
Track 3
Filename C:\EAC rips\03 - Elegy (for Lester Bowie).wav
Pre-gap length 0:00:03.57
Peak level 63.5 %
Extraction speed 3.0 X
Track quality 99.9 %
Test CRC 7DC67C91
Copy CRC 7DC67C91
Track not present in AccurateRip database
Copy OK
Track 4
Filename C:\EAC rips\04 - See How They Run.wav
Pre-gap length 0:00:03.57
Peak level 76.2 %
Extraction speed 3.8 X
Track quality 99.9 %
Test CRC 1BE6089E
Copy CRC 1BE6089E
Track not present in AccurateRip database
Copy OK
Track 5
Filename C:\EAC rips\05 - Peccadillos.wav
Pre-gap length 0:00:03.57
Peak level 55.1 %
Extraction speed 4.4 X
Track quality 100.0 %
Test CRC 6C930786
Copy CRC 6C930786
Track not present in AccurateRip database
Copy OK
Track 6
Filename C:\EAC rips\06 - The Meaning of the Blues.wav
Pre-gap length 0:00:03.57
Peak level 15.3 %
Extraction speed 4.2 X
Track quality 100.0 %
Test CRC C0037DC3
Copy CRC C0037DC3
Track not present in AccurateRip database
Copy OK
None of the tracks are present in the AccurateRip database
No errors occurred
End of status report
---- CUETools DB Plugin V2.1.4
[CTDB TOCID: y19YyN8mYjHOzNyyZpb3BeOUzZ8-] disk not present in database
Submit result: y19YyN8mYjHOzNyyZpb3BeOUzZ8- has been uploaded
==== Log checksum 8A3334573C9298C783415179BE1CCB471004932FB74851D0439D29B752569339 ====
 
Содержание индексной карты (.CUE)
REM GENRE Jazz
REM DATE 2001
REM DISCID 5C0E8A06
REM COMMENT "ExactAudioCopy v1.0b3"
PERFORMER "Paul Smoker Trio"
TITLE "Mirabile Dictu"
FILE "01 - Open Season.wav" WAVE
TRACK 01 AUDIO
TITLE "Open Season"
PERFORMER "Paul Smoker Trio"
INDEX 01 00:00:00
TRACK 02 AUDIO
TITLE "Mirabile Dictu"
PERFORMER "Paul Smoker Trio"
INDEX 00 11:17:29
FILE "02 - Mirabile Dictu.wav" WAVE
INDEX 01 00:00:00
TRACK 03 AUDIO
TITLE "Elegy (for Lester Bowie)"
PERFORMER "Paul Smoker Trio"
INDEX 00 11:11:23
FILE "03 - Elegy (for Lester Bowie).wav" WAVE
INDEX 01 00:00:00
TRACK 04 AUDIO
TITLE "See How They Run"
PERFORMER "Paul Smoker Trio"
INDEX 00 07:47:02
FILE "04 - See How They Run.wav" WAVE
INDEX 01 00:00:00
TRACK 05 AUDIO
TITLE "Peccadillos"
PERFORMER "Paul Smoker Trio"
INDEX 00 15:42:57
FILE "05 - Peccadillos.wav" WAVE
INDEX 01 00:00:00
TRACK 06 AUDIO
TITLE "The Meaning of the Blues"
PERFORMER "Paul Smoker Trio"
INDEX 00 12:17:39
FILE "06 - The Meaning of the Blues.wav" WAVE
INDEX 01 00:00:00
По всем вопросам пишите личное сообщение пользователю M0p94ok.
02:48
150
Нет комментариев. Ваш будет первым!