Вы используете незарегистрированную версию компонента "Вкладки"!

Поиск

(Avant-Garde, Enja Records) Marty Ehrlich - Song - 2001, FLAC (tracks+.cue), lossless

(Avant-Garde, Enja Records) Marty Ehrlich - Song - 2001, FLAC (tracks+.cue), lossless
Треклист:
Marty Ehrlich / Song
Жанр: Avant-Garde, Enja Records
Страна-производитель диска: Germany
Год издания: 2001
Издатель (лейбл): Enja Records
Номер по каталогу: ENJ-9396 2
Аудиокодек: FLAC (*.flac)
Тип рипа: tracks+.cue
Битрейт аудио: lossless
Продолжительность: 50:26
Источник (релизер): Max Monteiro
Наличие сканов в содержимом раздачи: да
Треклист:
1. Waltz (Robin Holcomb) 5:04
2. The Price of the Ticket (after James Baldwin) (Marty Ehrlich) 9:55
3. Day of the Dark Bright Light (Marty Ehrlich) 5:29
4. Blue Boye’s Blues (Marty Ehrlich) 8:20
5. I Pity the Poor Immigrant (Bob Dylan) 6:01
6. Fauve (Marty Ehrlich) 10:21
7. The Falling Rains of Life (Jaki Byard) 5:16
Recorded on October 18, 1999 at Sound on Sound Studio, New York City.
Marty Ehrlich – Alto and Soprano Saxes, Bass Clarinet
Uri Caine – Piano
Michael Formanek – Bass
Billy Drummond – Drums
Special guest on #4: Ray Anderson – Trombone
 
Лог создания рипа
Exact Audio Copy V1.0 beta 3 from 29. August 2011
EAC extraction logfile from 31. July 2013, 16:32
The Marty Ehrlich Quartet / Song
Used drive : SlimtypeeNAU508 5 Adapter: 1 ID: 0
Read mode : Secure
Utilize accurate stream : Yes
Defeat audio cache : Yes
Make use of C2 pointers : No
Read offset correction : 6
Overread into Lead-In and Lead-Out : No
Fill up missing offset samples with silence : Yes
Delete leading and trailing silent blocks : No
Null samples used in CRC calculations : Yes
Used interface : Native Win32 interface for Win NT & 2000
Gap handling : Appended to previous track
Used output format : User Defined Encoder
Selected bitrate : 768 kBit/s
Quality : High
Add ID3 tag : No
Command line compressor : C:\Program Files (x86)\Exact Audio Copy\Flac\flac.exe
Additional command line options : -8 -V -T "ARTIST=%artist%" -T "TITLE=%title%" -T "ALBUM=%albumtitle%" -T "DATE=%year%" -T "TRACKNUMBER=%tracknr%" -T "GENRE=%genre%" -T "PERFORMER=%albuminterpret%" -T "COMPOSER=%composer%" %haslyrics%--tag-from-file=LYRICS="%lyricsfile%"%haslyrics% -T "ALBUMARTIST=%albumartist%" -T "DISCNUMBER=%cdnumber%" -T "TOTALDISCS=%totalcds%" -T "TOTALTRACKS=%numtracks%" -T "COMMENT=%comment%" %source% -o %dest%
TOC of the extracted CD
Track | Start | Length | Start sector | End sector
---------------------------------------------------------
1 | 0:00.00 | 5:04.27 | 0 | 22826
2 | 5:04.27 | 9:55.30 | 22827 | 67481
3 | 14:59.57 | 5:29.05 | 67482 | 92161
4 | 20:28.62 | 8:20.10 | 92162 | 129671
5 | 28:48.72 | 6:00.40 | 129672 | 156711
6 | 34:49.37 | 10:20.60 | 156712 | 203271
7 | 45:10.22 | 5:16.05 | 203272 | 226976
Track 1
Filename C:\EAC rips\01 - Waltz.wav
Pre-gap length 0:00:02.00
Peak level 64.7 %
Extraction speed 2.3 X
Track quality 100.0 %
Test CRC 77F33972
Copy CRC 77F33972
Accurately ripped (confidence 3) [607EAA4B] (AR v1)
Copy OK
Track 2
Filename C:\EAC rips\02 - The Price of the Ticket (after James Baldwin).wav
Pre-gap length 0:00:03.25
Peak level 98.9 %
Extraction speed 2.9 X
Track quality 100.0 %
Test CRC A5D1745D
Copy CRC A5D1745D
Accurately ripped (confidence 3) [59ABFF11] (AR v1)
Copy OK
Track 3
Filename C:\EAC rips\03 - Day of the Dark Bright Light.wav
Pre-gap length 0:00:00.72
Peak level 47.2 %
Extraction speed 3.2 X
Track quality 100.0 %
Test CRC 8D25C236
Copy CRC 8D25C236
Accurately ripped (confidence 3) [FB3C959F] (AR v1)
Copy OK
Track 4
Filename C:\EAC rips\04 - Blue Boye's Blues.wav
Pre-gap length 0:00:03.72
Peak level 100.0 %
Extraction speed 3.6 X
Track quality 100.0 %
Test CRC FAAFD6EE
Copy CRC FAAFD6EE
Accurately ripped (confidence 3) [A8140968] (AR v1)
Copy OK
Track 5
Filename C:\EAC rips\05 - I Pity the Poor Immigrant.wav
Pre-gap length 0:00:03.17
Peak level 58.4 %
Extraction speed 3.3 X
Track quality 99.9 %
Test CRC 26E97C43
Copy CRC 26E97C43
Accurately ripped (confidence 3) [A6E9169B] (AR v1)
Copy OK
Track 6
Filename C:\EAC rips\06 - Fauve.wav
Pre-gap length 0:00:02.45
Peak level 97.0 %
Extraction speed 3.9 X
Track quality 99.9 %
Test CRC B94AC003
Copy CRC B94AC003
Accurately ripped (confidence 3) [CE055408] (AR v1)
Copy OK
Track 7
Filename C:\EAC rips\07 - The Falling Rains of Life.wav
Peak level 43.4 %
Extraction speed 3.6 X
Track quality 99.9 %
Test CRC 1D6A1DCB
Copy CRC 1D6A1DCB
Accurately ripped (confidence 3) [2C50DE5F] (AR v1)
Copy OK
All tracks accurately ripped
No errors occurred
End of status report
---- CUETools DB Plugin V2.1.4
[CTDB TOCID: n8wPClXp2CPGfWAXFpsiIkPWsCo-] found
Submit result: already submitted
Track | CTDB Status
1 | (3/3) Accurately ripped
2 | (3/3) Accurately ripped
3 | (3/3) Accurately ripped
4 | (3/3) Accurately ripped
5 | (3/3) Accurately ripped
6 | (3/3) Accurately ripped
7 | (3/3) Accurately ripped
==== Log checksum 8B541E25265F4D5E08F2203CE9BDF0EE2A71E68D3165DB228D81DC2C7C213871 ====
 
Содержание индексной карты (.CUE)
REM GENRE Jazz
REM DATE 2001
REM DISCID 3E0BD207
REM COMMENT "ExactAudioCopy v1.0b3"
PERFORMER "Marty Ehrlich"
TITLE "Song"
FILE "01 - Waltz.wav" WAVE
TRACK 01 AUDIO
TITLE "Waltz"
PERFORMER "Marty Ehrlich"
INDEX 01 00:00:00
TRACK 02 AUDIO
TITLE "The Price of the Ticket (after James Baldwin)"
PERFORMER "Marty Ehrlich"
INDEX 00 05:01:02
FILE "02 - The Price of the Ticket (after James Baldwin).wav" WAVE
INDEX 01 00:00:00
TRACK 03 AUDIO
TITLE "Day of the Dark Bright Light"
PERFORMER "Marty Ehrlich"
INDEX 00 09:54:33
FILE "03 - Day of the Dark Bright Light.wav" WAVE
INDEX 01 00:00:00
TRACK 04 AUDIO
TITLE "Blue Boye's Blues"
PERFORMER "Marty Ehrlich"
INDEX 00 05:25:08
FILE "04 - Blue Boye's Blues.wav" WAVE
INDEX 01 00:00:00
TRACK 05 AUDIO
TITLE "I Pity the Poor Immigrant"
PERFORMER "Marty Ehrlich"
INDEX 00 08:16:68
FILE "05 - I Pity the Poor Immigrant.wav" WAVE
INDEX 01 00:00:00
TRACK 06 AUDIO
TITLE "Fauve"
PERFORMER "Marty Ehrlich"
INDEX 00 05:57:70
FILE "06 - Fauve.wav" WAVE
INDEX 01 00:00:00
FILE "07 - The Falling Rains of Life.wav" WAVE
TRACK 07 AUDIO
TITLE "The Falling Rains of Life"
PERFORMER "Marty Ehrlich"
INDEX 01 00:00:00
По всем вопросам пишите личное сообщение пользователю M0p94ok.
16:34
159
Нет комментариев. Ваш будет первым!