Вы используете незарегистрированную версию компонента "Вкладки"!

Поиск

(Avant-Garde Jazz, Free Jazz) Alvin Fielder Trio ‎– A Measure Of Vision - 2007, FLAC (tracks+.cue), lossless

(Avant-Garde Jazz, Free Jazz) Alvin Fielder Trio ‎– A Measure Of Vision - 2007, FLAC (tracks+.cue), lossless
Треклист:
Alvin Fielder Trio ‎– A Measure Of Vision
Жанр: Avant-Garde Jazz, Free Jazz
Страна-производитель диска: Portugal
Год издания: 2007
Издатель (лейбл): Clean Feed
Номер по каталогу: CF071CD
Страна: USA
Аудиокодек: FLAC (*.flac)
Тип рипа: tracks+.cue
Битрейт аудио: lossless
Продолжительность: 1:09:09
Источник (релизер): 6060842
Наличие сканов в содержимом раздачи: да
Треклист:
1. Your Sons And Daughters Shall Prophesy 4:03
2. Á Mon Frére 4:54
3. Camel 12:23
4. Max-Well 5:37
5. Ripe For Vision 15:57
6. Your Young Men Shall See Visions 6:52
7. Time No Time 4:55
8. Your Old Men Shall Dream Dreams 7:37
9. The Cecil Taylor-Sunny Murray Dancing Lesson 6:46
 
Лог создания рипа
X Lossless Decoder version 20130127 (142.3)
XLD extraction logfile from 2013-03-17 23:41:12 +0400
Alvin Fielder Trio / A Measure of Vision
Used drive : HL-DT-ST DVDRW GX30N (revision RP09)
Media type : Pressed CD
Ripper mode : XLD Secure Ripper
Disable audio cache : OK for the drive with a cache less than 1375KiB
Make use of C2 pointers : NO
Read offset correction : 6
Max retry count : 20
Gap status : Analyzed, Appended
TOC of the extracted CD
Track | Start | Length | Start sector | End sector
---------------------------------------------------------
1 | 00:00:00 | 04:03:74 | 0 | 18298
2 | 04:03:74 | 04:54:54 | 18299 | 40402
3 | 08:58:53 | 12:23:20 | 40403 | 96147
4 | 21:21:73 | 05:37:40 | 96148 | 121462
5 | 26:59:38 | 15:57:38 | 121463 | 193275
6 | 42:57:01 | 06:52:73 | 193276 | 224248
7 | 49:49:74 | 04:55:31 | 224249 | 246404
8 | 54:45:30 | 07:37:16 | 246405 | 280695
9 | 62:22:46 | 06:46:14 | 280696 | 311159
AccurateRip Summary
Disc not found in AccurateRip DB.
All Tracks
Album gain : -3.63 dB
Peak : 0.988678
Statistics
Read error : 0
Jitter error (maybe fixed) : 0
Retry sector count : 0
Damaged sector count : 0
Track 01
Filename : /Users/anch/Music/FLAC/Alvin Fielder Trio - 2007 - A Measure of Vision [FLAC]/01 - Your Sons And Daughters Shall Prophesy.flac
/Users/anch/Music/FLAC/Alvin Fielder Trio - 2007 - A Measure of Vision [MP3 320]/01 - Your Sons And Daughters Shall Prophesy.mp3
/Users/anch/Music/FLAC/Alvin Fielder Trio - 2007 - A Measure of Vision [MP3 V0]/01 - Your Sons And Daughters Shall Prophesy.mp3
Pre-gap length : 00:02:00
Track gain : -4.36 dB
Peak : 0.988678
CRC32 hash (test run) : CAE83CE0
CRC32 hash : CAE83CE0
CRC32 hash (skip zero) : 02AFB601
AccurateRip v1 signature : A5D16097
AccurateRip v2 signature : 11ABA5A9
->Track not present in AccurateRip database.
Statistics
Read error : 0
Jitter error (maybe fixed) : 0
Retry sector count : 0
Damaged sector count : 0
Track 02
Filename : /Users/anch/Music/FLAC/Alvin Fielder Trio - 2007 - A Measure of Vision [FLAC]/02 - À Mon Frère.flac
/Users/anch/Music/FLAC/Alvin Fielder Trio - 2007 - A Measure of Vision [MP3 320]/02 - À Mon Frère.mp3
/Users/anch/Music/FLAC/Alvin Fielder Trio - 2007 - A Measure of Vision [MP3 V0]/02 - À Mon Frère.mp3
Pre-gap length : 00:02:00
Track gain : -1.31 dB
Peak : 0.988556
CRC32 hash (test run) : 36782072
CRC32 hash : 36782072
CRC32 hash (skip zero) : 39A106BC
AccurateRip v1 signature : D32E68C3
AccurateRip v2 signature : 38D90EA6
->Track not present in AccurateRip database.
Statistics
Read error : 0
Jitter error (maybe fixed) : 0
Retry sector count : 0
Damaged sector count : 0
Track 03
Filename : /Users/anch/Music/FLAC/Alvin Fielder Trio - 2007 - A Measure of Vision [FLAC]/03 - Camel.flac
/Users/anch/Music/FLAC/Alvin Fielder Trio - 2007 - A Measure of Vision [MP3 320]/03 - Camel.mp3
/Users/anch/Music/FLAC/Alvin Fielder Trio - 2007 - A Measure of Vision [MP3 V0]/03 - Camel.mp3
Pre-gap length : 00:02:00
Track gain : -4.02 dB
Peak : 0.988647
CRC32 hash (test run) : 29D36537
CRC32 hash : 29D36537
CRC32 hash (skip zero) : 8CBBEB7E
AccurateRip v1 signature : 628BB83D
AccurateRip v2 signature : 21826C13
->Track not present in AccurateRip database.
Statistics
Read error : 0
Jitter error (maybe fixed) : 0
Retry sector count : 0
Damaged sector count : 0
Track 04
Filename : /Users/anch/Music/FLAC/Alvin Fielder Trio - 2007 - A Measure of Vision [FLAC]/04 - Max-Well.flac
/Users/anch/Music/FLAC/Alvin Fielder Trio - 2007 - A Measure of Vision [MP3 320]/04 - Max-Well.mp3
/Users/anch/Music/FLAC/Alvin Fielder Trio - 2007 - A Measure of Vision [MP3 V0]/04 - Max-Well.mp3
Pre-gap length : 00:02:00
Track gain : -4.08 dB
Peak : 0.988647
CRC32 hash (test run) : 0CE2A18A
CRC32 hash : 0CE2A18A
CRC32 hash (skip zero) : 9C707A66
AccurateRip v1 signature : E980327F
AccurateRip v2 signature : F454A4EF
->Track not present in AccurateRip database.
Statistics
Read error : 0
Jitter error (maybe fixed) : 0
Retry sector count : 0
Damaged sector count : 0
Track 05
Filename : /Users/anch/Music/FLAC/Alvin Fielder Trio - 2007 - A Measure of Vision [FLAC]/05 - Ripe For Vision.flac
/Users/anch/Music/FLAC/Alvin Fielder Trio - 2007 - A Measure of Vision [MP3 320]/05 - Ripe For Vision.mp3
/Users/anch/Music/FLAC/Alvin Fielder Trio - 2007 - A Measure of Vision [MP3 V0]/05 - Ripe For Vision.mp3
Pre-gap length : 00:02:00
Track gain : -2.68 dB
Peak : 0.988586
CRC32 hash (test run) : 10E1CDBC
CRC32 hash : 10E1CDBC
CRC32 hash (skip zero) : 031976C9
AccurateRip v1 signature : E6E70581
AccurateRip v2 signature : 25AFDB12
->Track not present in AccurateRip database.
Statistics
Read error : 0
Jitter error (maybe fixed) : 0
Retry sector count : 0
Damaged sector count : 0
Track 06
Filename : /Users/anch/Music/FLAC/Alvin Fielder Trio - 2007 - A Measure of Vision [FLAC]/06 - Your Young Men Shall See Visions.flac
/Users/anch/Music/FLAC/Alvin Fielder Trio - 2007 - A Measure of Vision [MP3 320]/06 - Your Young Men Shall See Visions.mp3
/Users/anch/Music/FLAC/Alvin Fielder Trio - 2007 - A Measure of Vision [MP3 V0]/06 - Your Young Men Shall See Visions.mp3
Pre-gap length : 00:02:00
Track gain : -4.06 dB
Peak : 0.988647
CRC32 hash (test run) : 009D2CBA
CRC32 hash : 009D2CBA
CRC32 hash (skip zero) : 2AC62247
AccurateRip v1 signature : FC983C73
AccurateRip v2 signature : 3840BD47
->Track not present in AccurateRip database.
Statistics
Read error : 0
Jitter error (maybe fixed) : 0
Retry sector count : 0
Damaged sector count : 0
Track 07
Filename : /Users/anch/Music/FLAC/Alvin Fielder Trio - 2007 - A Measure of Vision [FLAC]/07 - Time No Time.flac
/Users/anch/Music/FLAC/Alvin Fielder Trio - 2007 - A Measure of Vision [MP3 320]/07 - Time No Time.mp3
/Users/anch/Music/FLAC/Alvin Fielder Trio - 2007 - A Measure of Vision [MP3 V0]/07 - Time No Time.mp3
Pre-gap length : 00:02:00
Track gain : -4.76 dB
Peak : 0.988617
CRC32 hash (test run) : 03BC8EFB
CRC32 hash : 03BC8EFB
CRC32 hash (skip zero) : 3F010265
AccurateRip v1 signature : E8CE1432
AccurateRip v2 signature : 66E9B5F0
->Track not present in AccurateRip database.
Statistics
Read error : 0
Jitter error (maybe fixed) : 0
Retry sector count : 0
Damaged sector count : 0
Track 08
Filename : /Users/anch/Music/FLAC/Alvin Fielder Trio - 2007 - A Measure of Vision [FLAC]/08 - Your Old Men Shall Dream Visions.flac
/Users/anch/Music/FLAC/Alvin Fielder Trio - 2007 - A Measure of Vision [MP3 320]/08 - Your Old Men Shall Dream Visions.mp3
/Users/anch/Music/FLAC/Alvin Fielder Trio - 2007 - A Measure of Vision [MP3 V0]/08 - Your Old Men Shall Dream Visions.mp3
Pre-gap length : 00:02:00
Track gain : -1.73 dB
Peak : 0.988647
CRC32 hash (test run) : BEE1A069
CRC32 hash : BEE1A069
CRC32 hash (skip zero) : D8B57671
AccurateRip v1 signature : 74A92768
AccurateRip v2 signature : 60F7F184
->Track not present in AccurateRip database.
Statistics
Read error : 0
Jitter error (maybe fixed) : 0
Retry sector count : 0
Damaged sector count : 0
Track 09
Filename : /Users/anch/Music/FLAC/Alvin Fielder Trio - 2007 - A Measure of Vision [FLAC]/09 - The Cecil Taylor - Sunny Murray Dancing Lesson.flac
/Users/anch/Music/FLAC/Alvin Fielder Trio - 2007 - A Measure of Vision [MP3 320]/09 - The Cecil Taylor - Sunny Murray Dancing Lesson.mp3
/Users/anch/Music/FLAC/Alvin Fielder Trio - 2007 - A Measure of Vision [MP3 V0]/09 - The Cecil Taylor - Sunny Murray Dancing Lesson.mp3
Pre-gap length : 00:02:00
Track gain : -3.52 dB
Peak : 0.988617
CRC32 hash (test run) : DB66EBC3
CRC32 hash : DB66EBC3
CRC32 hash (skip zero) : 407D802A
AccurateRip v1 signature : 77C11AC8
AccurateRip v2 signature : 79DE20D6
->Track not present in AccurateRip database.
Statistics
Read error : 0
Jitter error (maybe fixed) : 0
Retry sector count : 0
Damaged sector count : 0
No errors occurred
End of status report
 
Содержание индексной карты (.CUE)
TITLE "A Measure of Vision"
PERFORMER "Alvin Fielder Trio"
REM GENRE "Free Jazz"
REM DATE "2007"
REM DISCNUMBER 1
REM TOTALDISCS 1
REM DISCID 80103409
REM REPLAYGAIN_ALBUM_GAIN -3.63 dB
REM REPLAYGAIN_ALBUM_PEAK 0.988678
FILE "01 - Your Sons And Daughters Shall Prophesy.flac" WAVE
TRACK 01 AUDIO
TITLE "Your Sons And Daughters Shall Prophesy"
PERFORMER "Alvin Fielder Trio"
REM REPLAYGAIN_TRACK_GAIN -4.36 dB
REM REPLAYGAIN_TRACK_PEAK 0.988678
INDEX 01 00:00:00
TRACK 02 AUDIO
TITLE "À Mon Frère"
PERFORMER "Alvin Fielder Trio"
REM REPLAYGAIN_TRACK_GAIN -1.31 dB
REM REPLAYGAIN_TRACK_PEAK 0.988556
INDEX 00 04:01:74
FILE "02 - A Mon Frere.flac" WAVE
INDEX 01 00:00:00
TRACK 03 AUDIO
TITLE "Camel"
PERFORMER "Alvin Fielder Trio"
REM REPLAYGAIN_TRACK_GAIN -4.02 dB
REM REPLAYGAIN_TRACK_PEAK 0.988647
INDEX 00 04:52:54
FILE "03 - Camel.flac" WAVE
INDEX 01 00:00:00
TRACK 04 AUDIO
TITLE "Max-Well"
PERFORMER "Alvin Fielder Trio"
REM REPLAYGAIN_TRACK_GAIN -4.08 dB
REM REPLAYGAIN_TRACK_PEAK 0.988647
INDEX 00 12:21:20
FILE "04 - Max-Well.flac" WAVE
INDEX 01 00:00:00
TRACK 05 AUDIO
TITLE "Ripe For Vision"
PERFORMER "Alvin Fielder Trio"
REM REPLAYGAIN_TRACK_GAIN -2.68 dB
REM REPLAYGAIN_TRACK_PEAK 0.988586
INDEX 00 05:35:40
FILE "05 - Ripe For Vision.flac" WAVE
INDEX 01 00:00:00
TRACK 06 AUDIO
TITLE "Your Young Men Shall See Visions"
PERFORMER "Alvin Fielder Trio"
REM REPLAYGAIN_TRACK_GAIN -4.06 dB
REM REPLAYGAIN_TRACK_PEAK 0.988647
INDEX 00 15:55:38
FILE "06 - Your Young Men Shall See Visions.flac" WAVE
INDEX 01 00:00:00
TRACK 07 AUDIO
TITLE "Time No Time"
PERFORMER "Alvin Fielder Trio"
REM REPLAYGAIN_TRACK_GAIN -4.76 dB
REM REPLAYGAIN_TRACK_PEAK 0.988617
INDEX 00 06:50:73
FILE "07 - Time No Time.flac" WAVE
INDEX 01 00:00:00
TRACK 08 AUDIO
TITLE "Your Old Men Shall Dream Visions"
PERFORMER "Alvin Fielder Trio"
REM REPLAYGAIN_TRACK_GAIN -1.73 dB
REM REPLAYGAIN_TRACK_PEAK 0.988647
INDEX 00 04:53:31
FILE "08 - Your Old Men Shall Dream Visions.flac" WAVE
INDEX 01 00:00:00
TRACK 09 AUDIO
TITLE "The Cecil Taylor - Sunny Murray Dancing Lesson"
PERFORMER "Alvin Fielder Trio"
REM REPLAYGAIN_TRACK_GAIN -3.52 dB
REM REPLAYGAIN_TRACK_PEAK 0.988617
INDEX 00 07:35:16
FILE "09 - The Cecil Taylor - Sunny Murray Dancing Lesson.flac" WAVE
INDEX 01 00:00:00
 
Об исполнителе (группе)
 
Состав
Alvin Fielder - drums, percussion
Dennis Gonzalez - C trumpet, Bb trumpet
Chris Parker - piano
Aaron Gonzalez - acoustic bass (3, 5)
Stefan Gonzalez - vibes (5), drums (5, 6)
Any questions -> support@pro-jazz.com. По всем вопросам пишите -> support@pro-jazz.com
16:35
141
Нет комментариев. Ваш будет первым!