Вы используете незарегистрированную версию компонента "Вкладки"!

Поиск

(Avant-Garde, Electroacoustic Improvisation) [CD] Alon Nechushtan (w/ Mark Dresser, Steve Swell, Ned Rothenberg, Okkyung Lee, Henry Kaiser, Elliott Sharp) - Dark Forces - 2011, FLAC (tracks+.cue), lossless

(Avant-Garde, Electroacoustic Improvisation) [CD] Alon Nechushtan (w/ Mark Dresser, Steve Swell, Ned Rothenberg, Okkyung Lee, Henry Kaiser, Elliott Sharp) - Dark Forces - 2011, FLAC (tracks+.cue), lossless
Треклист:
Alon Nechushtan / Dark Forces
Жанр: Avant-Garde, Electroacoustic Improvisation
Носитель: CD
Страна-производитель диска: Portugal
Год издания: 2011
Издатель (лейбл): Creative Sources
Номер по каталогу: cs 195 cd
Страна: Israel, US
Аудиокодек: FLAC (*.flac)
Тип рипа: tracks+.cue
Битрейт аудио: lossless
Продолжительность: 58:42
Источник (релизер): свой фирменный диск
Наличие сканов в содержимом раздачи:
Треклист:
1. untitled
2. untitled
3. untitled
4. untitled
5. untitled
6. untitled
7. untitled
8. untitled
9. untitled
10. untitled
 
Лог создания рипа
Exact Audio Copy V1.0 beta 3 from 29. August 2011
EAC extraction logfile from 29. March 2014, 15:39
Alon Nechushtan / Dark Forces
Used drive : TSSTcorpCDDVDW SH-222AB Adapter: 1 ID: 0
Read mode : Secure
Utilize accurate stream : Yes
Defeat audio cache : Yes
Make use of C2 pointers : No
Read offset correction : 6
Overread into Lead-In and Lead-Out : No
Fill up missing offset samples with silence : Yes
Delete leading and trailing silent blocks : No
Null samples used in CRC calculations : Yes
Used interface : Installed external ASPI interface
Gap handling : Appended to previous track
Used output format : User Defined Encoder
Selected bitrate : 896 kBit/s
Quality : High
Add ID3 tag : No
Command line compressor : C:\Program Files\Exact Audio Copy\FLAC\FLAC.EXE
Additional command line options : -6 -V -T "ARTIST=%artist%" -T "TITLE=%title%" -T "ALBUM=%albumtitle%" -T "DATE=%year%" -T "TRACKNUMBER=%tracknr%" -T "GENRE=%genre%" -T "COMMENT=%comment%" -T "BAND=%albuminterpret%" -T "COMPOSER=%composer%" %haslyrics%--tag-from-file=LYRICS="%lyricsfile%"%haslyrics% -T "DISCNUMBER=%cdnumber%" -T "TOTALDISCS=%totalcds%" -T "TOTALTRACKS=%numtracks%" %hascover%--picture="%coverfile%"%hascover% %source% -o %dest%
TOC of the extracted CD
Track | Start | Length | Start sector | End sector
---------------------------------------------------------
1 | 0:00.00 | 3:58.12 | 0 | 17861
2 | 3:58.12 | 7:08.45 | 17862 | 50006
3 | 11:06.57 | 5:32.56 | 50007 | 74962
4 | 16:39.38 | 6:23.51 | 74963 | 103738
5 | 23:03.14 | 6:29.59 | 103739 | 132972
6 | 29:32.73 | 6:59.64 | 132973 | 164461
7 | 36:32.62 | 4:36.40 | 164462 | 185201
8 | 41:09.27 | 7:02.34 | 185202 | 216885
9 | 48:11.61 | 5:00.24 | 216886 | 239409
10 | 53:12.10 | 5:29.69 | 239410 | 264153
Track 1
Filename D:\zzz\01 - untitled.wav
Pre-gap length 0:00:02.00
Peak level 100.0 %
Extraction speed 2.7 X
Track quality 100.0 %
Test CRC 809AF459
Copy CRC 809AF459
Accurately ripped (confidence 1) [A589BA34] (AR v1)
Copy OK
Track 2
Filename D:\zzz\02 - untitled.wav
Peak level 100.0 %
Extraction speed 2.7 X
Track quality 99.9 %
Test CRC 806CACBC
Copy CRC 806CACBC
Accurately ripped (confidence 1) [6E05C9B2] (AR v1)
Copy OK
Track 3
Filename D:\zzz\03 - untitled.wav
Peak level 100.0 %
Extraction speed 2.8 X
Track quality 100.0 %
Test CRC 5FBFDC34
Copy CRC 5FBFDC34
Accurately ripped (confidence 1) [B2671F9B] (AR v1)
Copy OK
Track 4
Filename D:\zzz\04 - untitled.wav
Peak level 57.7 %
Extraction speed 2.9 X
Track quality 100.0 %
Test CRC 8F3478A2
Copy CRC 8F3478A2
Accurately ripped (confidence 1) [C4FC0311] (AR v1)
Copy OK
Track 5
Filename D:\zzz\05 - untitled.wav
Peak level 92.7 %
Extraction speed 2.6 X
Track quality 99.9 %
Test CRC F13AD276
Copy CRC F13AD276
Accurately ripped (confidence 1) [4046114B] (AR v1)
Copy OK
Track 6
Filename D:\zzz\06 - untitled.wav
Peak level 60.0 %
Extraction speed 2.9 X
Track quality 100.0 %
Test CRC 7BCF7D20
Copy CRC 7BCF7D20
Accurately ripped (confidence 1) [EA207922] (AR v1)
Copy OK
Track 7
Filename D:\zzz\07 - untitled.wav
Peak level 73.6 %
Extraction speed 2.4 X
Track quality 99.9 %
Test CRC A3625167
Copy CRC A3625167
Accurately ripped (confidence 1) [8E9AF321] (AR v1)
Copy OK
Track 8
Filename D:\zzz\08 - untitled.wav
Peak level 80.2 %
Extraction speed 2.9 X
Track quality 100.0 %
Test CRC B9A2C2B8
Copy CRC B9A2C2B8
Accurately ripped (confidence 1) [83FC76AC] (AR v1)
Copy OK
Track 9
Filename D:\zzz\09 - untitled.wav
Peak level 78.4 %
Extraction speed 2.7 X
Track quality 100.0 %
Test CRC F6CF2936
Copy CRC F6CF2936
Accurately ripped (confidence 1) [A97BAAC3] (AR v1)
Copy OK
Track 10
Filename D:\zzz\10 - untitled.wav
Peak level 100.0 %
Extraction speed 2.8 X
Track quality 100.0 %
Test CRC FAA63BDF
Copy CRC FAA63BDF
Accurately ripped (confidence 1) [E7E0B870] (AR v1)
Copy OK
All tracks accurately ripped
No errors occurred
End of status report
==== Log checksum 68BD78ACFC430A8CFA6737AB7422A49547BD3C149958441CA733684CE1F5C165 ====
 
Содержание индексной карты (.CUE)
REM GENRE "Weird Ambient Nu Jazz"
REM DATE 2011
REM DISCID 870DC20A
REM COMMENT "ExactAudioCopy v1.0b3"
PERFORMER "Alon Nechushtan"
TITLE "Dark Forces"
FILE "01 - untitled.wav" WAVE
TRACK 01 AUDIO
TITLE "untitled"
PERFORMER "Alon Nechushtan"
FLAGS DCP
INDEX 01 00:00:00
FILE "02 - untitled.wav" WAVE
TRACK 02 AUDIO
TITLE "untitled"
PERFORMER "Alon Nechushtan"
FLAGS DCP
INDEX 01 00:00:00
FILE "03 - untitled.wav" WAVE
TRACK 03 AUDIO
TITLE "untitled"
PERFORMER "Alon Nechushtan"
FLAGS DCP
INDEX 01 00:00:00
FILE "04 - untitled.wav" WAVE
TRACK 04 AUDIO
TITLE "untitled"
PERFORMER "Alon Nechushtan"
FLAGS DCP
INDEX 01 00:00:00
FILE "05 - untitled.wav" WAVE
TRACK 05 AUDIO
TITLE "untitled"
PERFORMER "Alon Nechushtan"
FLAGS DCP
INDEX 01 00:00:00
FILE "06 - untitled.wav" WAVE
TRACK 06 AUDIO
TITLE "untitled"
PERFORMER "Alon Nechushtan"
FLAGS DCP
INDEX 01 00:00:00
FILE "07 - untitled.wav" WAVE
TRACK 07 AUDIO
TITLE "untitled"
PERFORMER "Alon Nechushtan"
FLAGS DCP
INDEX 01 00:00:00
FILE "08 - untitled.wav" WAVE
TRACK 08 AUDIO
TITLE "untitled"
PERFORMER "Alon Nechushtan"
FLAGS DCP
INDEX 01 00:00:00
FILE "09 - untitled.wav" WAVE
TRACK 09 AUDIO
TITLE "untitled"
PERFORMER "Alon Nechushtan"
FLAGS DCP
INDEX 01 00:00:00
FILE "10 - untitled.wav" WAVE
TRACK 10 AUDIO
TITLE "untitled"
PERFORMER "Alon Nechushtan"
FLAGS DCP
INDEX 01 00:00:00
 
Лог проверки качества
d:\>d:\aucdtect -d/-m0 d:\zzz\*.wav
auCDtect: CD records authenticity detector, version 0.8.2
Copyright (c) 2004 Oleg Berngardt. All rights reserved.
Copyright (c) 2004 Alexander Djourik. All rights reserved.
------------------------------------------------------------
Processing file: [01. untitled.wav]
------------------------------------------------------------
This track looks like CDDA with probability 54%
------------------------------------------------------------
Processing file: [02. untitled.wav]
------------------------------------------------------------
This track looks like CDDA with probability 100%
------------------------------------------------------------
Processing file: [03. untitled.wav]
------------------------------------------------------------
This track looks like CDDA with probability 100%
------------------------------------------------------------
Processing file: [04. untitled.wav]
------------------------------------------------------------
This track looks like CDDA with probability 100%
------------------------------------------------------------
Processing file: [05. untitled.wav]
------------------------------------------------------------
This track looks like CDDA with probability 100%
------------------------------------------------------------
Processing file: [06. untitled.wav]
------------------------------------------------------------
This track looks like CDDA with probability 100%
------------------------------------------------------------
Processing file: [07. untitled.wav]
------------------------------------------------------------
This track looks like CDDA with probability 99%
------------------------------------------------------------
Processing file: [08. untitled.wav]
------------------------------------------------------------
This track looks like CDDA with probability 100%
------------------------------------------------------------
Processing file: [09. untitled.wav]
------------------------------------------------------------
This track looks like MPEG with probability 90%
------------------------------------------------------------
Processing file: [10. untitled.wav]
------------------------------------------------------------
This track looks like CDDA with probability 100%
------------------------------------------------------------
Final Conclusion:
------------------------------------------------------------
These tracks looks like CDDA with probability 100%
Доп. информация:
 
Album Info & AAJ Review
All music composed and produced by Alon Nechushtan
Recorded in Brooklyn, New York between 2003-2010 by Justin Balch
Mix by Alon Nechushtan, Master translation by Alon Nechushtan and Kato Hideki
Graphic design by Carlos Santos
Executive production by Ernesto Rodrigues
Thanks to all the great music makers on the album, it was a massive force!
Thank you ACUM
A man said to the universe:
"Sir, I exist!"
"However", replied the universe,
"The fact has not created in me
a sense of obligation." - Stephen Crane
The idea of placing a variety of daring instrumental personalities within different electronic-based sound collage nightmares is bold but, ultimately, hard to classify or grab onto. Dark Forces can't truly be called electronic music since the whole point of the music surrounds the integration of electronic and human elements, and it's hard to view it as free improvisation, since Alon Nechustan has painstakingly painted each musical canvas. Some might call it ambient music, but that tag usually describes a more transcendent form of musical meditation, or sonic numbness that doesn't really line up with Nechustan's doomy, futuristic picture of electronic disturbance, and no other descriptor really seems to do the music any justice.
An impressive collection of musical renegades was brought onboard for this project, and the only downside of the presence of these prized personnel comes from their not always having enough room to truly assert themselves. Tenor saxophonist Oleg Raskin comes out like a terrifying bird of prey at one point during his album-opening appearance, while cellist Okkyung Lee finds the right balance between soloist and soundscape collaborator and bassist Mark Dresser works nearly as well in his own setting; but other normally formidable voices. like trombonist Steve Swell and tuba titan Marcus Rojas, are never heard to their potential.
The pieces themselves are frightening trips through the darkest recesses of the human mind, as Nechustan creates a form of musical psychopathy that terrifies more from its potential for what may come around the corner than what is actually there. In this respect, Nechustan is able to conjure the elements of fear and uncertainty that reign supreme in the heads of horror movie lovers, while also creating left-of-center music that's out of this world. Dark Forces truly paints Nechustan as a downtown doomsayer, capable of crafting devilish musical works that combine man and machine in disturbing fashion.
 
Состав
Alon Nechushtan: composer
Mark Dresser: double bass
Steve Swell: trombone
Oleg Raskin: alto saxophone
Ned Rothenberg: bass clarinet
Robert Dick: bass flute
Marcus Rojas: tuba
Nate Wooley: trumpet
Okkyung Lee: cello
Briggan Krauss: baritone saxophone
Henry Kaiser: electric guitar
Elliott Sharp: electric guitar
По всем вопросам пишите личное сообщение пользователю M0p94ok.
01:52
154
Нет комментариев. Ваш будет первым!