Вы используете незарегистрированную версию компонента "Вкладки"!

Поиск

(Avant-Garde Jazz, Free Improvisation) [CD] Elliott Sharp & Scott Fields - Afiadacampos - 2010, FLAC (tracks+.cue), lossless

(Avant-Garde Jazz, Free Improvisation) [CD] Elliott Sharp & Scott Fields - Afiadacampos - 2010, FLAC (tracks+.cue), lossless
Треклист:
Elliott Sharp & Scott Fields / Afiadacampos
Жанр: Avant-Garde Jazz, Free Improvisation
Носитель: CD
Страна-производитель диска: Germany
Год издания: 2010
Издатель (лейбл): NEOS Jazz
Номер по каталогу: NEOS 41004
Страна: US
Аудиокодек: FLAC (*.flac)
Тип рипа: tracks+.cue
Битрейт аудио: lossless
Продолжительность: 57:38
Источник (релизер): свой фирменный диск
Наличие сканов в содержимом раздачи:
Треклист:
1. Pleonica 4:14
2. Earth Ecology: Fishes Emplore God 5:08
3. The Great Red Spot 3:57
4. I Love Not Green Eggs 9:15
5. Krash Area 6:25
6. The Iconography Of Shame 8:31
7. Delta Delta 5:20
8. Sun Figtree 5:47
9. Convolution Now! 9:05
 
Лог создания рипа
Exact Audio Copy V1.0 beta 3 from 29. August 2011
EAC extraction logfile from 28. March 2014, 21:27
Elliott Sharp & Scott Fields / Afiadacampos
Used drive : PIONEER DVD-RW DVR-115D Adapter: 0 ID: 0
Read mode : Secure
Utilize accurate stream : Yes
Defeat audio cache : Yes
Make use of C2 pointers : No
Read offset correction : 48
Overread into Lead-In and Lead-Out : No
Fill up missing offset samples with silence : Yes
Delete leading and trailing silent blocks : No
Null samples used in CRC calculations : Yes
Used interface : Installed external ASPI interface
Gap handling : Appended to previous track
Used output format : User Defined Encoder
Selected bitrate : 896 kBit/s
Quality : High
Add ID3 tag : No
Command line compressor : C:\Program Files\Exact Audio Copy\FLAC\FLAC.EXE
Additional command line options : -6 -V -T "ARTIST=%artist%" -T "TITLE=%title%" -T "ALBUM=%albumtitle%" -T "DATE=%year%" -T "TRACKNUMBER=%tracknr%" -T "GENRE=%genre%" -T "COMMENT=%comment%" -T "BAND=%albuminterpret%" -T "COMPOSER=%composer%" %haslyrics%--tag-from-file=LYRICS="%lyricsfile%"%haslyrics% -T "DISCNUMBER=%cdnumber%" -T "TOTALDISCS=%totalcds%" -T "TOTALTRACKS=%numtracks%" %hascover%--picture="%coverfile%"%hascover% %source% -o %dest%
TOC of the extracted CD
Track | Start | Length | Start sector | End sector
---------------------------------------------------------
1 | 0:00.00 | 4:13.49 | 0 | 19023
2 | 4:13.49 | 5:07.35 | 19024 | 42083
3 | 9:21.09 | 3:56.31 | 42084 | 59814
4 | 13:17.40 | 9:14.47 | 59815 | 101411
5 | 22:32.12 | 6:24.34 | 101412 | 130245
6 | 28:56.46 | 8:31.02 | 130246 | 168572
7 | 37:27.48 | 5:19.38 | 168573 | 192535
8 | 42:47.11 | 5:46.42 | 192536 | 218527
9 | 48:33.53 | 9:05.15 | 218528 | 259417
Track 1
Filename D:\zzz\01 - Pleonica.wav
Pre-gap length 0:00:02.00
Peak level 75.2 %
Extraction speed 3.9 X
Track quality 99.9 %
Test CRC E7C34D00
Copy CRC E7C34D00
Track not present in AccurateRip database
Copy OK
Track 2
Filename D:\zzz\02 - Earth Ecology- Fishes Emplore God.wav
Pre-gap length 0:00:01.00
Peak level 73.5 %
Extraction speed 4.9 X
Track quality 100.0 %
Test CRC 24BC7BCE
Copy CRC 24BC7BCE
Track not present in AccurateRip database
Copy OK
Track 3
Filename D:\zzz\03 - The Great Red Spot.wav
Pre-gap length 0:00:03.00
Peak level 97.6 %
Extraction speed 5.2 X
Track quality 100.0 %
Test CRC 6B85C513
Copy CRC 6B85C513
Track not present in AccurateRip database
Copy OK
Track 4
Filename D:\zzz\04 - I Love Not Green Eggs.wav
Pre-gap length 0:00:03.00
Peak level 97.6 %
Extraction speed 6.3 X
Track quality 100.0 %
Test CRC D911564E
Copy CRC D911564E
Track not present in AccurateRip database
Copy OK
Track 5
Filename D:\zzz\05 - Krash Area.wav
Pre-gap length 0:00:01.00
Peak level 80.6 %
Extraction speed 6.2 X
Track quality 99.9 %
Test CRC AFFF90D6
Copy CRC AFFF90D6
Track not present in AccurateRip database
Copy OK
Track 6
Filename D:\zzz\06 - Iconography Of Shame.wav
Pre-gap length 0:00:01.00
Peak level 66.1 %
Extraction speed 6.5 X
Track quality 99.9 %
Test CRC 6F21F848
Copy CRC 6F21F848
Track not present in AccurateRip database
Copy OK
Track 7
Filename D:\zzz\07 - Delta Delta.wav
Pre-gap length 0:00:02.00
Peak level 61.9 %
Extraction speed 7.5 X
Track quality 100.0 %
Test CRC B287DA46
Copy CRC B287DA46
Track not present in AccurateRip database
Copy OK
Track 8
Filename D:\zzz\08 - Sun Figtree.wav
Pre-gap length 0:00:03.00
Peak level 97.6 %
Extraction speed 7.2 X
Track quality 99.9 %
Test CRC C59427D9
Copy CRC C59427D9
Track not present in AccurateRip database
Copy OK
Track 9
Filename D:\zzz\09 - Convolution Now!.wav
Pre-gap length 0:00:03.00
Peak level 92.6 %
Extraction speed 8.6 X
Track quality 100.0 %
Test CRC F9A20376
Copy CRC F9A20376
Track not present in AccurateRip database
Copy OK
None of the tracks are present in the AccurateRip database
No errors occurred
End of status report
==== Log checksum 49E4CD6C326B06AE2C5BC4EEC4864D30C87F15CC4EFC775A5D181B81081517C1 ====
 
Содержание индексной карты (.CUE)
REM GENRE Avant-Garde
REM DATE 2010
REM DISCID 8D0D8209
REM COMMENT "ExactAudioCopy v1.0b3"
PERFORMER "Elliott Sharp & Scott Fields"
TITLE "Afiadacampos"
FILE "01 - Pleonica.wav" WAVE
TRACK 01 AUDIO
TITLE "Pleonica"
PERFORMER "Elliott Sharp & Scott Fields"
FLAGS DCP
INDEX 01 00:00:00
TRACK 02 AUDIO
TITLE "Earth Ecology: Fishes Emplore God"
PERFORMER "Elliott Sharp & Scott Fields"
FLAGS DCP
INDEX 00 04:12:49
FILE "02 - Earth Ecology- Fishes Emplore God.wav" WAVE
INDEX 01 00:00:00
TRACK 03 AUDIO
TITLE "The Great Red Spot"
PERFORMER "Elliott Sharp & Scott Fields"
FLAGS DCP
INDEX 00 05:04:35
FILE "03 - The Great Red Spot.wav" WAVE
INDEX 01 00:00:00
TRACK 04 AUDIO
TITLE "I Love Not Green Eggs"
PERFORMER "Elliott Sharp & Scott Fields"
FLAGS DCP
INDEX 00 03:53:31
FILE "04 - I Love Not Green Eggs.wav" WAVE
INDEX 01 00:00:00
TRACK 05 AUDIO
TITLE "Krash Area"
PERFORMER "Elliott Sharp & Scott Fields"
FLAGS DCP
INDEX 00 09:13:47
FILE "05 - Krash Area.wav" WAVE
INDEX 01 00:00:00
TRACK 06 AUDIO
TITLE "Iconography Of Shame"
PERFORMER "Elliott Sharp & Scott Fields"
FLAGS DCP
INDEX 00 06:23:34
FILE "06 - Iconography Of Shame.wav" WAVE
INDEX 01 00:00:00
TRACK 07 AUDIO
TITLE "Delta Delta"
PERFORMER "Elliott Sharp & Scott Fields"
FLAGS DCP
INDEX 00 08:29:02
FILE "07 - Delta Delta.wav" WAVE
INDEX 01 00:00:00
TRACK 08 AUDIO
TITLE "Sun Figtree"
PERFORMER "Elliott Sharp & Scott Fields"
FLAGS DCP
INDEX 00 05:16:38
FILE "08 - Sun Figtree.wav" WAVE
INDEX 01 00:00:00
TRACK 09 AUDIO
TITLE "Convolution Now!"
PERFORMER "Elliott Sharp & Scott Fields"
FLAGS DCP
INDEX 00 05:43:42
FILE "09 - Convolution Now!.wav" WAVE
INDEX 01 00:00:00
 
Лог проверки качества
d:\>d:\aucdtect -d/-m0 d:\zzz\*.wav
auCDtect: CD records authenticity detector, version 0.8.2
Copyright (c) 2004 Oleg Berngardt. All rights reserved.
Copyright (c) 2004 Alexander Djourik. All rights reserved.
------------------------------------------------------------
Processing file: [01. Pleonica.wav]
------------------------------------------------------------
This track looks like CDDA with probability 100%
------------------------------------------------------------
Processing file: [02. Earth Ecology- Fishes Emplore God.wav]
------------------------------------------------------------
This track looks like CDDA with probability 100%
------------------------------------------------------------
Processing file: [03. The Great Red Spot.wav]
------------------------------------------------------------
This track looks like CDDA with probability 100%
------------------------------------------------------------
Processing file: [04. I Love Not Green Eggs.wav]
------------------------------------------------------------
This track looks like CDDA with probability 100%
------------------------------------------------------------
Processing file: [05. Krash Area.wav]
------------------------------------------------------------
This track looks like CDDA with probability 100%
------------------------------------------------------------
Processing file: [06. Iconography Of Shame.wav]
------------------------------------------------------------
This track looks like CDDA with probability 100%
------------------------------------------------------------
Processing file: [07. Delta Delta.wav]
------------------------------------------------------------
This track looks like CDDA with probability 100%
------------------------------------------------------------
Processing file: [08. Sun Figtree.wav]
------------------------------------------------------------
This track looks like CDDA with probability 99%
------------------------------------------------------------
Processing file: [09. Convolution Now!.wav]
------------------------------------------------------------
This track looks like CDDA with probability 100%
------------------------------------------------------------
Final Conclusion:
------------------------------------------------------------
These tracks looks like CDDA with probability 100%
Доп. информация:
 
Album Info & Squidsear Review
Compositions by: Scott Fields (2,4,6,8), Elliott Sharp (1,3,5,7,9)
Producer: Elliott Sharp
Executive producer: Wulf Weinmann
Recordings: 06 March 2010, Topaz Studios, Cologne
Recording engineer: Reinhard Kobialka
Mixing & mastering: Elliott Sharp, Studio zOaR, New York City
Cover photograph: Elliott Sharp
Musicians photographs: Carlos Paes
Editor: Brigitte Weinmann
Typesetting & layout: Dominik Weinmann
Both proven improvising guitarists and composers, two lucid cerebrums shining under the spotlight in the digipak's inside photo, Sharp and Fields present the second recorded chapter of an ongoing partnership after Scharfefelder on Clean Feed. Armed with, respectively, a 1985 Thomas Reg'n and a 1998 Collings OM-2H — hold your drooling, jealous handlers of cheap Taiwanese imitations — the comrades cancel the obnoxious smell of scalar mustiness and rubber-nose electric tones completely, also sharing the compositional duties (five tracks are by E#, four by SF).
Don't let the "compositional" term fool you, though. There's a lot of improvisation in the 57 minutes of Afiadacampos — and, for the large part, of the finely structured kind. As the Chicagoan himself puts it, the pair is "interested in fuzzing up relationships between written and improvised sounds, rejecting the free-jazz model in which heads are matched with unrelated blowing". Not a truer word: even when the instruments are tuned according to specific ratios (as in "Earth Ecology") a logical sense underlies the interplay, clouds of hovering harmonics fighting first, revealing splendid rainbows later. This writer made the ultimate test, abandoning the listening room to hear how the adjacent partials were received at a distance; there was more harmony in what was caught by the ears at that moment than in an archetypal duet. That peculiar synchronization is the fruit of shrewdly elicited resonant interferences, to which a reactive listener should adapt instead of remaining mouth agape, waiting for the habitual dose of Superlocrian-spiced sticky molasses and chordal clichйs.
The acoustic timbres superb, the percussive aspect explored through tapping on necks and bodies, nicely coarse eBowed drones and dented strings ("Delta Delta") and bionic rasgueados altering the values in the commonly intended aesthetic scale; each piece offers at least a couple of intriguing facets that Sharp and Fields investigate and exploit implacably. Their work convinces because the approach is thorough and resolute, not characterized by the grasshopper-like futility of sterile digital virtuosity. This might be one of the best guitar albums of 2010, worthy of being played loud and often. The house will be thankful.
 
Состав
On this recording Elliott Sharp plays a 1985 Thomas Reg'n guitar
Scott Fields plays a 1998 Collings OM-2H guitar
По всем вопросам пишите личное сообщение пользователю M0p94ok.
01:52
158
Нет комментариев. Ваш будет первым!