Вы используете незарегистрированную версию компонента "Вкладки"!

Поиск

(avant-garde, electro-jazz polish, contemporary) Robotobibok - Дискография [3 альбома] 2000 - 2004, APE (image+.cue), lossless

Треклист:
Robotobibok - Дискография
Жанр: avant-garde, electro-jazz polish, contemporary
Год выпуска диска: 2000-2004
Производитель диска: Польша
Аудио кодек: APE
Тип рипа: image+.cue
Битрейт аудио: lossless
Общая продолжительность: 02:40:24Дзень добры, панове и джевчины. Всмысле, давненько у нас не было недель польского джаза :-), ну, или хотя бы уикендов.
В продолжение польской темы представляю вашему вниманию польский джазовый ансамбль Robotobibok. Основан в 1998 году во Вроцлаве. Название состоит из двух польских слов, первое, как вы уже догадались, «робот», а второе означает «сачок» или «лентяй». Получается что-то вроде «сачок для ловли роботов» или «ленивый робот»
Их музыка объединяет современную электроннуй музыку с энергией импровизационного джаза. Живые барабаны , контрабас и труба переплетаются с мечтательным вибрафоном, электрическими гитарами и характерной для 70-х аналоговой винтажной электроникой.
Результат вызывает атмосферу электрического джаза 70-х годов и ранних электроакустических экспериментов.
К сожалению, группа прекратила свое существование, выпустив 3 прекрасных альбома. В настоящее время «мозг» группы, барабанщик, программист и аранжировщик Якуб (Куба) Цухар и трубач Артур Маевски работают в электронно-джазовом проекте Mikrokolektyw. Также Якуб (Куба) Цухар и Марчин Чупидро заняты в этно-джазовом проекте MetaMuzyka.
 
Андрей Соловьев (группа "Вежливый отказ" и др.) о польском джазе:
послушать его кстати можно здесь http://community.livejournal.com/jazz_ru/699883.html
Когда я готовил этот выпуск джазового подкаста, у меня в голове, почему-то, вертелись заштампованные фразы, типа: "Большое видится на расстоянии" или "Пройти проверку временем". Наверное потому, что оба эти выражения с уверенностью можно приложить сегодня к тому, что принято называть польcким джазом. Да, что там говорить, и раньше ясно было, что польский джаз - это совершенно особое уникальное явление, не только по джазовым меркам, но и в масштабах европейской музыкальной культуры в целом. Польский джаз отобразил и создал в звуковом измерении некую смысловую параллель, гармоничный эквивалент того, что происходило в польском кино, театре, литературе и других ответвлениях культурной жизни времён послевоенного возрождения. Истоки этого процесса следует искать где-то на рубеже 40-50-х годов. А завершается он в конце 80-х, когда в социальном сознании укрепляется факт того, что восточной Европы больше нет. Но такой грандиозный феномен, каким был польский джаз на протяжении более трёх десятилетий, не мог исчезнуть и раствориться бесследно. И в творчестве молодых поляков каким-то образом присутствует частичка того, чего ценою немалых усилий добилось поколение их отцов. Вообще эта тема наводит на мысли, которые увлекают далеко от темы данного выпуска и касаются совсем не музыкальных проблем. Но коротко скажу, что в условия тоталитарной идиалогии польские музыканты добились очень многого и в обобщённом виде их опыт, вероятно, можно рассматривать, как образец поведения художника в условиях несвободы. Какое-то время ничего интересного из Речи Посполитой не доносилось. Казалось, что там окончательно восторжествовали бизнес и коммерция. И вдруг одна за другой пошли интересные пластинки, которые опровергли эти опасения. Только центр тяжести переместился в область синтеза электронной, современной академической и джазовой музыки. Связующим звеном между старым польским джазом и новым, стала вроцлавская группа "Скальпель". Собственно, и не группа это вовсе, а лабораторного типа содружество двух продвинутых диджеев, которое сложилось в конце прошлого десятилетия. Долгое время никто и не знал кто с скрывается за этим названием. Марцин Цыхи и Игорь Пудло занимались главным образом тем, что разбирали на цитаты старые пластинки Кшиштофа Комедея, Томаша Станко, Збигневаня Мысловского и других ветеранов польского джаза. Мастерили эффектные лупы, подводили под них модные кислотные ритмы и создавали очень интересную, стильную музыку, скроенную по клубным стандартам лоу-фи, джази и даунтемпо. Параллельно с этой непростой работой по поиску нужных старинных звуков для новомодных электронных коллажей Игорь Пудло время от времени публиковал материалы и статьи о клубной сцене. В 2000-м году он взял интервью у известного диджея Вадима, кстати выходца из нашей страны. А тот порекомендовал "Скальпель" хозяевам самого авторитетного кислотного лейбла "Нинья тьюн". Дебютный альбом дуэта вышел под говорящим названием "Польский джаз". Следом было издано ещё две пластинки, правда уже на материале записей Майлса Девиса, Херби Хэнкока и других гигантах американского джаза. Но звук всё-равно остался какой-то особый.. польский.
Также хотел представить вам еще один врацлавский, ансамбль со смешным названием Роботобибок. Ансамбль предлагает совершенно ни на что не похожий сплав электроники, академического авангарда и ладового джаза. Любопытно, что один из участников этой группы сын знаменитого трубача Хенрика Маевского Артур Маевский , который также играет на трубе, как и его прославленный отец. Другие участники проекта варьируются от альбома к альбому.


Albums

 
2000 - Jogging
Год выпуска диска: 2000
Лэйбл: Vytvornia OM {CD 001}
Продолжительность: 01:00:51
Трэклист:
1. Sonda-Jungle
2. N.O.L.
3. Maraton Tanca
4. Lincoln Continental
5. Podroz Do Mexyku
6. Piecioro Dzieci i Cos
7. Jogging
8. Piecioro Dzieci i Cos (live)

 
line up
Contrabass — Marcin Ożóg
Guitar, Arp [Odyssey] — Maciej Bączyk
Percussion — Kuba Suchar
Saxophone, Moog — Adam Pindur
Trumpet — Artur Majewski

 
log
EAC extraction logfile from 17. July 2006, 14:33 for CD
Robotobibok / Jogging
Used drive : LITE-ON DVDRW SOHW-1213S Adapter: 1 ID: 1
Read mode : Secure with NO C2, accurate stream, disable cache
Read offset correction : 12
Overread into Lead-In and Lead-Out : No
Used output format : Internal WAV Routines
44.100 Hz; 16 Bit; Stereo
Other options :
Fill up missing offset samples with silence : Yes
Delete leading and trailing silent blocks : No
Installed external ASPI interface
Range status and errors
Selected range
Filename C:\INCOMING\EAC\CDImage.wav
Peak level 99.4 %
Range quality 100.0 %
CRC 7504104F
Copy OK
No errors occured
End of status report
 
cue
PERFORMER "Robotobibok"
TITLE "Jogging"
FILE "CDImage.wav" WAVE
TRACK 01 AUDIO
TITLE "Sonda-Jungle"
PERFORMER "Robotobibok"
INDEX 01 00:00:00
TRACK 02 AUDIO
TITLE "N.O.L."
PERFORMER "Robotobibok"
INDEX 00 07:34:50
INDEX 01 07:37:37
TRACK 03 AUDIO
TITLE "Maraton Tanca"
PERFORMER "Robotobibok"
INDEX 00 15:35:68
INDEX 01 15:38:55
TRACK 04 AUDIO
TITLE "Lincoln Continental"
PERFORMER "Robotobibok"
INDEX 00 21:55:31
INDEX 01 21:58:18
TRACK 05 AUDIO
TITLE "Podroz Do Mexyku"
PERFORMER "Robotobibok"
INDEX 00 32:13:00
INDEX 01 32:15:62
TRACK 06 AUDIO
TITLE "Piecioro Dzieci i Cos"
PERFORMER "Robotobibok"
INDEX 00 41:27:20
INDEX 01 41:30:07
TRACK 07 AUDIO
TITLE "Jogging"
PERFORMER "Robotobibok"
INDEX 00 48:34:07
INDEX 01 48:36:69
TRACK 08 AUDIO
TITLE "Piecioro Dzieci i Cos (live)"
PERFORMER "Robotobibok"
INDEX 00 56:19:59
INDEX 01 56:22:46
 
2002 - Instytut Las
Год выпуска диска: 2002
Лэйбл: Vytvornia OM {CD 004}
Продолжительность: 00:58:16
Трэклист:
01. Solina
02. Wymiana Tlenu Na Stacji Mir
03. Grzybiarz
04. VCS *
05. Robot
06. Muzyka Do Filmu
07. Instytut Ruperta S.
08. VCS **
09. Pomiar Czasu
10. O Czym Szumia Wierzby
11. Lodz Podwodna
Complete Artwork
 
line up
Contrabass — Marcin Ożóg
Guitar, Arp Odyssey — Maciej Bączyk
Percussion — Kuba Suchar
Saxophone, Moog — Adam Pindur
Trumpet — Artur Majewski

 
log
Exact Audio Copy V0.99 prebeta 3 from 28. July 2007
EAC extraction logfile from 31. December 2007, 14:32
Robotobibok / Instytut Las
Used drive : PLEXTOR DVDR PX-810SA Adapter: 1 ID: 0
Read mode : Secure
Utilize accurate stream : Yes
Defeat audio cache : Yes
Make use of C2 pointers : No
Read offset correction : 48
Overread into Lead-In and Lead-Out : No
Fill up missing offset samples with silence : Yes
Delete leading and trailing silent blocks : No
Null samples used in CRC calculations : Yes
Used interface : Installed external ASPI interface
Used output format : Internal WAV Routines
Sample format : 44.100 Hz; 16 Bit; Stereo
TOC of the extracted CD
Track | Start | Length | Start sector | End sector
---------------------------------------------------------
1 | 0:00.00 | 6:28.02 | 0 | 29101
2 | 6:28.02 | 5:53.38 | 29102 | 55614
3 | 12:21.40 | 7:03.35 | 55615 | 87374
4 | 19:25.00 | 0:39.10 | 87375 | 90309
5 | 20:04.10 | 1:43.25 | 90310 | 98059
6 | 21:47.35 | 5:26.19 | 98060 | 122528
7 | 27:13.54 | 8:00.46 | 122529 | 158574
8 | 35:14.25 | 0:18.07 | 158575 | 159931
9 | 35:32.32 | 3:06.73 | 159932 | 173954
10 | 38:39.30 | 8:11.12 | 173955 | 210791
11 | 46:50.42 | 11:25.33 | 210792 | 262199
Range status and errors
Selected range
Filename E:\INCOMING\EAC\Robotobibok - Instytut Las.wav
Peak level 100.0 %
Range quality 100.0 %
Test CRC 7D747B1D
Copy CRC 7D747B1D
Copy OK
No errors occurred
End of status report
 
cue
REM GENRE Electro-Jazz
REM DATE 2002
REM DISCID 790DA80B
REM COMMENT "ExactAudioCopy v0.99pb3"
PERFORMER "Robotobibok"
TITLE "Instytut Las"
FILE "Robotobibok - Instytut Las.wav" WAVE
TRACK 01 AUDIO
TITLE "Solina"
PERFORMER "Robotobibok"
INDEX 01 00:00:00
TRACK 02 AUDIO
TITLE "Wymiana Tlenu Na Stacji Mir"
PERFORMER "Robotobibok"
INDEX 01 06:28:02
TRACK 03 AUDIO
TITLE "Grzybiarz"
PERFORMER "Robotobibok"
INDEX 01 12:21:40
TRACK 04 AUDIO
TITLE "VCS *"
PERFORMER "Robotobibok"
INDEX 01 19:25:00
TRACK 05 AUDIO
TITLE "Robot"
PERFORMER "Robotobibok"
INDEX 01 20:04:10
TRACK 06 AUDIO
TITLE "Muzyka Do Filmu"
PERFORMER "Robotobibok"
INDEX 01 21:47:35
TRACK 07 AUDIO
TITLE "Instytut Ruperta S."
PERFORMER "Robotobibok"
INDEX 01 27:13:54
TRACK 08 AUDIO
TITLE "VCS **"
PERFORMER "Robotobibok"
INDEX 01 35:14:25
TRACK 09 AUDIO
TITLE "Pomiar Czasu"
PERFORMER "Robotobibok"
INDEX 01 35:32:32
TRACK 10 AUDIO
TITLE "O Czym Szumia Wierzby"
PERFORMER "Robotobibok"
INDEX 01 38:39:30
TRACK 11 AUDIO
TITLE "Lodz Podwodna"
PERFORMER "Robotobibok"
INDEX 01 46:50:42
 
2004 - Nawyki Przyrody
Год выпуска диска: 2004
Лэйбл: Vytvornia OM {CD 005}
Продолжительность: 00:40:57
Трэклист:
1. Kamaji
2. Symfonia Zmyslow
3. 54 Kw
4. Skipping A
5. 100000 Lat Gwarancji
6. Tylko Dla Zwierzat
7. Zemsta Gniewosza
8. Skipping C
9. Jurij

 
line up
Bass - Marcin Ożóg
Drums, Percussion, Vibraphone, Vocals, Synthesizer [Minimoog] - Kuba Suchar
Guitar [Electric] , Synthesizer [Arp Odyssey] - Maciek Bączyk
Saxophone, Electric Piano, Harmonium - Adam Pindur
Trumpet, Electric Piano, Vocals - Artur Majewski

 
log
EAC extraction logfile from 4. November 2006, 10:45 for CD
Robotobibok / Nawyki Przyrody
Used drive : LITE-ON DVDRW SOHW-1213S Adapter: 1 ID: 1
Read mode : Secure with NO C2, accurate stream, disable cache
Read offset correction : 12
Overread into Lead-In and Lead-Out : No
Used output format : Internal WAV Routines
44.100 Hz; 16 Bit; Stereo
Other options :
Fill up missing offset samples with silence : Yes
Delete leading and trailing silent blocks : No
Installed external ASPI interface
Range status and errors
Selected range
Filename D:\INCOMING\EAC\CDImage.wav
Peak level 100.0 %
Range quality 100.0 %
CRC BEEB05E7
Copy OK
No errors occured
End of status report
 
cue
PERFORMER "Robotobibok"
TITLE "Nawyki Przyrody"
FILE "CDImage.wav" WAVE
TRACK 01 AUDIO
TITLE "Kamaji"
PERFORMER "Robotobibok"
INDEX 01 00:00:00
TRACK 02 AUDIO
TITLE "Symfonia Zmyslow"
PERFORMER "Robotobibok"
INDEX 01 05:11:65
TRACK 03 AUDIO
TITLE "54 Kw"
PERFORMER "Robotobibok"
INDEX 01 08:51:30
TRACK 04 AUDIO
TITLE "Skipping A"
PERFORMER "Robotobibok"
INDEX 01 15:40:55
TRACK 05 AUDIO
TITLE "100000 Lat Gwarancji"
PERFORMER "Robotobibok"
INDEX 01 20:28:40
TRACK 06 AUDIO
TITLE "Tylko Dla Zwierzat"
PERFORMER "Robotobibok"
INDEX 01 25:24:67
TRACK 07 AUDIO
TITLE "Zemsta Gniewosza"
PERFORMER "Robotobibok"
INDEX 01 29:32:05
TRACK 08 AUDIO
TITLE "Skipping C"
PERFORMER "Robotobibok"
INDEX 01 32:38:60
TRACK 09 AUDIO
TITLE "Jurij"
PERFORMER "Robotobibok"
INDEX 01 36:59:05


Диски взят из emule . Спасибо SurowyTato
Any questions -> support@pro-jazz.com. По всем вопросам пишите -> support@pro-jazz.com
01:03
164
Нет комментариев. Ваш будет первым!