Вы используете незарегистрированную версию компонента "Вкладки"!

Поиск

(Modern Creative / Post-Bop) Todd Sickafoose Group - Dogs Outside - 1999, FLAC (image+.cue), lossless

(Modern Creative / Post-Bop) Todd Sickafoose Group - Dogs Outside - 1999, FLAC (image+.cue), lossless
Треклист:
Todd Sickafoose Group - Dogs Outside

Жанр: Modern Creative / Post-Bop
Год выпуска диска: 1999
Производитель диска: Evander Music 010; USA
Аудио кодек: FLAC
Тип рипа: image+.cue
Битрейт аудио: lossless
Продолжительность: 48:15
Alan Ferber: trombone
Justin Morell: guitar, long-neck guitar
Mark Ferber: drums
Peter Epstein: alto and soprano saxophones
Todd Sickafoose: bass
1. Dogs Outside
2. Too Much Tea
3. Streaming
4. Big Oak
5. Workshop
6. Dark Day
7. Los Angeles in the Sky
8. Universal Dreams
Recorded at Mad Hatter Studios, Los Angeles, July 1999
 
EAC Report
Exact Audio Copy V0.99 prebeta 4 from 23. January 2008
EAC extraction logfile from 25. June 2010, 6:12
Todd Sickafoose Group / Dogs Outside
Used drive : TSSTcorpCD/DVDW SH-S182M Adapter: 2 ID: 0
Read mode : Secure
Utilize accurate stream : Yes
Defeat audio cache : Yes
Make use of C2 pointers : No
Read offset correction : 6
Overread into Lead-In and Lead-Out : No
Fill up missing offset samples with silence : Yes
Delete leading and trailing silent blocks : No
Null samples used in CRC calculations : Yes
Used interface : Installed external ASPI interface
Used output format : User Defined Encoder
Selected bitrate : 1024 kBit/s
Quality : High
Add ID3 tag : No
Command line compressor : C:\Program Files\Exact Audio Copy\Flac\flac.exe
Additional command line options : -6 -V -T "ARTIST=%a" -T "TITLE=%t" -T "ALBUM=%g" -T "DATE=%y" -T "TRACKNUMBER=%n" -T "GENRE=%m" -T "COMMENT=EAC FLAC -6" %s
TOC of the extracted CD
Track | Start | Length | Start sector | End sector
---------------------------------------------------------
1 | 0:00.00 | 4:56.25 | 0 | 22224
2 | 4:56.25 | 6:18.62 | 22225 | 50636
3 | 11:15.12 | 7:00.09 | 50637 | 82145
4 | 18:15.21 | 6:16.18 | 82146 | 110363
5 | 24:31.39 | 4:26.10 | 110364 | 130323
6 | 28:57.49 | 6:39.12 | 130324 | 160260
7 | 35:36.61 | 8:25.20 | 160261 | 198155
8 | 44:02.06 | 4:13.06 | 198156 | 217136
Range status and errors
Selected range
Filename C:\Users\Igor\Music\eac\Todd Sickafoose Group - Dogs Outside.wav
Peak level 100.0 %
Range quality 100.0 %
Test CRC 563CAC17
Copy CRC 563CAC17
Copy OK
No errors occurred
AccurateRip summary
Track 1 not present in database
Track 2 not present in database
Track 3 not present in database
Track 4 not present in database
Track 5 not present in database
Track 6 not present in database
Track 7 not present in database
Track 8 not present in database
None of the tracks are present in the AccurateRip database
End of status report

рип собственный
Также смотри Todd Sickafoose - Tiny Resistors (2008) k4r70x4
Any questions -> support@pro-jazz.com. По всем вопросам пишите -> support@pro-jazz.com
01:04
152
Нет комментариев. Ваш будет первым!