Вы используете незарегистрированную версию компонента "Вкладки"!

Поиск

(contemporary jazz, modern, norway) Zanussi Five - Zanussi Five - 2005, FLAC (tracks+.cue), lossless

Треклист:
Zanussi Five
Zanussi Five
Жанр: contemporary jazz, modern
Год издания диска: 2005
Издатель (лейбл): Moserobie Music Production
Номер по каталогу: MMPCD028
Аудио кодек: FLAC (*.flac)
Тип рипа: tracks+.cue
Битрейт аудио: lossless
Продолжительность: 00:41:05
Источник (релизер): what.cd [sauma]
Наличие сканов в содержимом раздачи: нет
Трэклист:
01. Fritz/Fri 14th
02. Azrah Illusion/Street Woman
03. Conundrum
04. Medardo
05. Duo
06. Valzer
07. Ghibli
08. Kef
Исполнители:
Kjetil Møster · (saxes)
Rolf-Erik Nystrøm · (saxes)
Eirik Hegdal · (saxes)
Per Zanussi · (double bass)
Per Oddvar Johanssen · (drums & percussion)
 
Лог создания рипа
Exact Audio Copy V0.99 prebeta 5 from 4. May 2009
EAC extraction logfile from 6. July 2010, 21:16
Zanussi Five / Zanussi Five
Used drive : HL-DT-STDVDRAM GH15F Adapter: 1 ID: 1
Read mode : Secure
Utilize accurate stream : Yes
Defeat audio cache : Yes
Make use of C2 pointers : No
Read offset correction : 667
Overread into Lead-In and Lead-Out : No
Fill up missing offset samples with silence : Yes
Delete leading and trailing silent blocks : No
Null samples used in CRC calculations : Yes
Used interface : Native Win32 interface for Win NT & 2000
Gap handling : Appended to previous track
Used output format : User Defined Encoder
Selected bitrate : 768 kBit/s
Quality : High
Add ID3 tag : No
Command line compressor : C:\Program Files (x86)\Exact Audio Copy\FLAC\FLAC.EXE
Additional command line options : -V -8 -T "artist=%a" -T "title=%t" -T "album=%g" -T "date=%y" -T "tracknumber=%n" -T "genre=%m" %s
TOC of the extracted CD
Track | Start | Length | Start sector | End sector
---------------------------------------------------------
1 | 0:00.00 | 6:08.55 | 0 | 27654
2 | 6:08.55 | 5:41.25 | 27655 | 53254
3 | 11:50.05 | 4:51.32 | 53255 | 75111
4 | 16:41.37 | 8:57.48 | 75112 | 115434
5 | 25:39.10 | 2:24.57 | 115435 | 126291
6 | 28:03.67 | 6:08.59 | 126292 | 153950
7 | 34:12.51 | 3:52.74 | 153951 | 171424
8 | 38:05.50 | 3:00.25 | 171425 | 184949
Track 1
Filename Y:\Music\Rips\01. Zanussi Five - Fritz,Fri 14th.wav
Pre-gap length 0:00:02.00
Peak level 87.8 %
Track quality 100.0 %
Test CRC 1603DFA1
Copy CRC 1603DFA1
Track not present in AccurateRip database
Copy OK
Track 2
Filename Y:\Music\Rips\02. Zanussi Five - Azrah Illusion,Street Woman.wav
Peak level 98.6 %
Track quality 100.0 %
Test CRC 3D1EF673
Copy CRC 3D1EF673
Track not present in AccurateRip database
Copy OK
Track 3
Filename Y:\Music\Rips\03. Zanussi Five - Conundrum.wav
Peak level 98.6 %
Track quality 100.0 %
Test CRC 6953AA4D
Copy CRC 6953AA4D
Track not present in AccurateRip database
Copy OK
Track 4
Filename Y:\Music\Rips\04. Zanussi Five - Medardo.wav
Peak level 98.6 %
Track quality 100.0 %
Test CRC 3A0E0883
Copy CRC 3A0E0883
Track not present in AccurateRip database
Copy OK
Track 5
Filename Y:\Music\Rips\05. Zanussi Five - Duo.wav
Peak level 66.9 %
Track quality 99.9 %
Test CRC 529776B4
Copy CRC 529776B4
Track not present in AccurateRip database
Copy OK
Track 6
Filename Y:\Music\Rips\06. Zanussi Five - Valzer.wav
Peak level 98.6 %
Track quality 100.0 %
Test CRC 00878E39
Copy CRC 00878E39
Track not present in AccurateRip database
Copy OK
Track 7
Filename Y:\Music\Rips\07. Zanussi Five - Ghibli.wav
Peak level 66.2 %
Track quality 100.0 %
Test CRC 446753CF
Copy CRC 446753CF
Track not present in AccurateRip database
Copy OK
Track 8
Filename Y:\Music\Rips\08. Zanussi Five - Kef.wav
Peak level 97.7 %
Track quality 99.9 %
Test CRC 423BA41D
Copy CRC 423BA41D
Track not present in AccurateRip database
Copy OK
None of the tracks are present in the AccurateRip database
No errors occurred
End of status report
 
Содержание индексной карты (.cue)
REM GENRE Jazz
REM DATE 2005
REM DISCID 5709A208
REM COMMENT "ExactAudioCopy v0.99pb5"
PERFORMER "Zanussi Five"
TITLE "Zanussi Five"
FILE "01. Zanussi Five - Fritz,Fri 14th.wav" WAVE
TRACK 01 AUDIO
TITLE "Fritz/Fri 14th"
PERFORMER "Zanussi Five"
INDEX 01 00:00:00
FILE "02. Zanussi Five - Azrah Illusion,Street Woman.wav" WAVE
TRACK 02 AUDIO
TITLE "Azrah Illusion/Street Woman"
PERFORMER "Zanussi Five"
INDEX 01 00:00:00
FILE "03. Zanussi Five - Conundrum.wav" WAVE
TRACK 03 AUDIO
TITLE "Conundrum"
PERFORMER "Zanussi Five"
INDEX 01 00:00:00
FILE "04. Zanussi Five - Medardo.wav" WAVE
TRACK 04 AUDIO
TITLE "Medardo"
PERFORMER "Zanussi Five"
INDEX 01 00:00:00
FILE "05. Zanussi Five - Duo.wav" WAVE
TRACK 05 AUDIO
TITLE "Duo"
PERFORMER "Zanussi Five"
INDEX 01 00:00:00
FILE "06. Zanussi Five - Valzer.wav" WAVE
TRACK 06 AUDIO
TITLE "Valzer"
PERFORMER "Zanussi Five"
INDEX 01 00:00:00
FILE "07. Zanussi Five - Ghibli.wav" WAVE
TRACK 07 AUDIO
TITLE "Ghibli"
PERFORMER "Zanussi Five"
INDEX 01 00:00:00
FILE "08. Zanussi Five - Kef.wav" WAVE
TRACK 08 AUDIO
TITLE "Kef"
PERFORMER "Zanussi Five"
INDEX 01 00:00:00

По всем вопросам пишите личное сообщение пользователю M0p94ok.
01:03
135
Нет комментариев. Ваш будет первым!