Вы используете незарегистрированную версию компонента "Вкладки"!

Поиск

(Avant-Garde / ECM) Annette Peacock - An Acrobat's Heart (ECM 1733) - 2000, FLAC (image+.cue), lossless

(Avant-Garde / ECM) Annette Peacock - An Acrobat's Heart (ECM 1733) - 2000, FLAC (image+.cue), lossless
Треклист:
Annette Peacock - An Acrobat's Heart (ECM 1733)
Жанр: Avant-Garde / ECM
Год выпуска диска: 2000
Производитель диска: USA (ECM)
Аудио кодек: FLAC
Тип рипа: image+.cue
Битрейт аудио: lossless
Продолжительность: 1:01:12
Annette Peacock vocal, piano
The Cikada String Quartet
Henrik Hannisdal violin
Odd Hannisdal violin
Marek Konstantynowicz viola
Morten Hannisdal cello
Mia's Proof
Tho
weightless
Over.
as long as now
u slide
b 4 u said
The heart keeps
ways it isn't
Unspoken
Safe
Free the memory
, ever to be gotten.
Camille
Lost at Last
Recorded January and April 2000
ECM 1733
 
AMG Review
Annette Peacock has been a defining influence on the music of ECM for many years, but An Acrobat's Heart is the first album she has made for the label as a leader. Here Peacock turns away from her previous work with electronic elements to produce a spare, ethereal set of compositions for voice, piano, and strings echoing the style of her early '80s album Skyskating. An Acrobat's Heart also marks the first time that Peacock has composed for strings, and the Cikada String Quartet's seamless accompaniment almost breathes with her. Silence and minimalism play major roles in this work, and both Peacock's voice and the accompanying instrumentation seem to bloom up from the quiet background and then dissipate again as quickly they appeared. The tones are clear and precise, but occasionally veer into dissonance as Peacock's wistful lyrics are fleshed out into holograms of sound, transparent but fully realized. Elements of jazz, blues, and torch songs ebb and flow throughout the album, adding to the nostalgic themes of romance and longing embodied by the lyrics. While seeming deeply personal, the lyrics are the weakest element of An Acrobat's Heart, lacking in the kind of poetic imagery and rhythm that would place them on a par with the quality of the surrounding music. Overall, however, this album proves that after over three decades as a performer, Annette Peacock still has the skill to compose and execute truly beautiful music.
~ Stacia Proefrock, AMG
 
EAC Report
Exact Audio Copy V0.99 prebeta 4 from 23. January 2008
EAC extraction logfile from 8. February 2009, 10:16
Annette Peacock / An Acrobat's Heart
Used drive : TSSTcorpCD/DVDW SH-S182M Adapter: 2 ID: 0
Read mode : Secure
Utilize accurate stream : Yes
Defeat audio cache : Yes
Make use of C2 pointers : No
Read offset correction : 6
Overread into Lead-In and Lead-Out : No
Fill up missing offset samples with silence : Yes
Delete leading and trailing silent blocks : No
Null samples used in CRC calculations : Yes
Used interface : Installed external ASPI interface
Used output format : User Defined Encoder
Selected bitrate : 1024 kBit/s
Quality : High
Add ID3 tag : No
Command line compressor : C:\Program Files\Exact Audio Copy\FLAC\FLAC.EXE
Additional command line options : -8 -V -T "ARTIST=%a" -T "TITLE=%t" -T "ALBUM=%g" -T "DATE=%y" -T "TRACKNUMBER=%n" -T "GENRE=%m" -T "COMMENT=%e" %s -o %d
TOC of the extracted CD
Track | Start | Length | Start sector | End sector
---------------------------------------------------------
1 | 0:00.00 | 5:25.55 | 0 | 24429
2 | 5:25.55 | 5:27.57 | 24430 | 49011
3 | 10:53.37 | 4:49.30 | 49012 | 70716
4 | 15:42.67 | 3:56.03 | 70717 | 88419
5 | 19:38.70 | 3:53.25 | 88420 | 105919
6 | 23:32.20 | 4:21.07 | 105920 | 125501
7 | 27:53.27 | 4:49.60 | 125502 | 147236
8 | 32:43.12 | 3:12.53 | 147237 | 161689
9 | 35:55.65 | 3:53.40 | 161690 | 179204
10 | 39:49.30 | 3:02.72 | 179205 | 192926
11 | 42:52.27 | 3:33.48 | 192927 | 208949
12 | 46:26.00 | 4:40.12 | 208950 | 229961
13 | 51:06.12 | 2:54.60 | 229962 | 243071
14 | 54:00.72 | 4:53.10 | 243072 | 265056
15 | 58:54.07 | 2:18.30 | 265057 | 275436
Range status and errors
Selected range
Filename C:\Documents and Settings\Igor\My Documents\My Music\eac\Annette Peacock - An Acrobat's Heart.wav
Peak level 99.9 %
Range quality 100.0 %
Test CRC 02E0E290
Copy CRC 02E0E290
Copy OK
No errors occurred
AccurateRip summary
Track 1 accurately ripped (confidence 3) [A190E3BE]
Track 2 accurately ripped (confidence 3) [0C198F88]
Track 3 accurately ripped (confidence 3) [C8AD883D]
Track 4 accurately ripped (confidence 3) [2DD6B4C6]
Track 5 accurately ripped (confidence 3) [DDA4D98F]
Track 6 accurately ripped (confidence 3) [31A32E15]
Track 7 accurately ripped (confidence 3) [16417587]
Track 8 accurately ripped (confidence 3) [F01AEC39]
Track 9 accurately ripped (confidence 3) [B82268E4]
Track 10 accurately ripped (confidence 3) [5E64BBC8]
Track 11 accurately ripped (confidence 3) [839CDD71]
Track 12 accurately ripped (confidence 3) [CECC2F84]
Track 13 accurately ripped (confidence 3) [E8113CC0]
Track 14 accurately ripped (confidence 3) [F38564AF]
Track 15 accurately ripped (confidence 3) [7481AAD0]
All tracks accurately ripped
End of status report
Any questions -> support@pro-jazz.com. По всем вопросам пишите -> support@pro-jazz.com
08:24
169
Нет комментариев. Ваш будет первым!