Вы используете незарегистрированную версию компонента "Вкладки"!

Поиск

(Avangarde) Toshinori Kondo, Bill Laswell, The Dalai Lama - Life, Space, Death - - 2002, flac (image+.cue), lossless

(Avangarde) Toshinori Kondo, Bill Laswell, The Dalai Lama - Life, Space, Death - - 2002, flac (image+.cue), lossless
Треклист:
Toshinori Kondo, Bill Laswell, The Dalai Lama - Life, Space, Death -
Жанр: Avant-Garde Jazz
Год выпуска диска: 2002
Производитель диска: UK
Аудио кодек: flac
Тип рипа: image+.cue
Битрейт аудио: lossless
Продолжительность: 64,10
Трэклист:
1 Life.
2 Space.
3 Death.
4 Mun Pa.
Отчёт EAC
 
скрытый текст
Exact Audio Copy V0.99 prebeta 4 from 23. January 2008
Отчёт EAC об извлечении, выполненном 21. февраля 2009, 2:47
Bill Laswell, Toshinori Kondo, The Dalai Lama / Life, Space, Death
Дисковод: TSSTcorpCDDVDW SH-S203D Adapter: 2 ID: 1
Режим чтения : Достоверность
Использование точного потока : Да
Отключение кэша аудио : Да
Использование указателей C2 : Нет
Коррекция смещения при чтении : 6
Способность читать области Lead-in и Lead-out : Нет
Заполнение пропущенных сэмплов тишиной : Да
Удаление блоков с тишиной в начале и конце : Нет
При вычислениях CRC использовались нулевые сэмплы : Да
Интерфейс : Установленный внешний ASPI-интерфейс
Выходной формат : Пользовательский кодировщик
Выбранный битрейт : 128 kBit/s
Качество : Высокий
Добавление ID3-тэга : Нет
Утилита сжатия : D:\Program Files\FLAC\flac.exe
Дополнительные параметры : -6 -V -T "ARTIST=%a" -T "TITLE=%t" -T "ALBUM=%g" -T "DATE=%y" -T "TRACKNUMBER=%n" -T "GENRE=%m" -T "COMMENT=%e" %s -o %d
TOC извлечённого CD
Трек | Старт | Длительность | Начальный сектор | Конечный сектор
---------------------------------------------------------------------
1 | 0:00.00 | 7:47.03 | 0 | 35027
2 | 7:47.03 | 6:31.07 | 35028 | 64359
3 | 14:18.10 | 7:41.50 | 64360 | 98984
4 | 21:59.60 | 13:56.14 | 98985 | 161698
Характеристики диапазона извлечения и сообщения об ошибках
Выбранный диапазон
Имя файла D:\Bill Laswell, Toshinori Kondo, The Dalai Lama - Life, Space, Death.wav
Пиковый уровень 100.0 %
Качество диапазона 100.0 %
CRC копии 362C827D
Копирование... OK
Ошибок не произошло
Конец отчёта
Доп. информация:
Label Metamatic Uk
Personnel :
Bill Laswell - bass
Toshinori Kondo - trumpet
Dalai Lama - vocals
Also: Eraldo Bernocchi
Any questions -> support@pro-jazz.com. По всем вопросам пишите -> support@pro-jazz.com
08:23
128
Нет комментариев. Ваш будет первым!