Вы используете незарегистрированную версию компонента "Вкладки"!

Поиск

(Avant-Garde / Free Jazz) Rova - The Works (Volume 3) - 1999, FLAC (image+.cue), lossless

(Avant-Garde / Free Jazz) Rova - The Works (Volume 3) - 1999, FLAC (image+.cue), lossless
Треклист:
Rova - The Works (Volume 3)
Жанр: Avant-Garde / Free Jazz
Год выпуска диска: 1999
Производитель диска: Italy (Black Saint 120196-2)
Аудио кодек: FLAC
Тип рипа: image+.cue
Битрейт аудио: lossless
Продолжительность: 47:42
The Players (left to right on all tracks)
Bruce Ackley soprano and tenor saxophones
Jon Raskin baritone and sopranino saxophones
Steve Adams alto and sopranino saxophones
Larry Ochs tenor and sopranino saxophones
1. Laredo
2. Quartet #1
3. The Gene Pool
'Laredo' and 'Quartet #1' were recorded at Bay Studios, Berkley, California on April 4,6 and July 27, 1997.
'The Gene Pool' was recorded direct to DAT at Istambul Symphony Hall, Istanbul, Turkey on March 15, 1997.
 
AMG Review
The ROVA Saxophone Quartet provide a tiered, three-dimensional look into the interaction of soprano, alto, tenor, and baritone saxophone. The arrangement of these instruments in the stereo mix -- left to right on all tracks in the sequence soprano, baritone, alto, and then tenor -- offers great contrast in the three-dimensional sound. Even the bright little spark of piccolo or sopranino saxophone is involved in these works of sonic texture. While Steve Adams of the group contributes one piece to the three-work album ("The Gene Pool"), the rest are commissions. Robin Holcomb wrote "Laredo" for the group and Muhal Richard Abrams contributes "Quartet 1." Still, each work is a showcase for group improvisation. These explorative forays by the group are not usually intensely challenging Niagaras of notes, but just as often sparkling and moving moments of lyricism. ~ Tom Schulte, AMG
 
EAC Report
Exact Audio Copy V0.99 prebeta 4 from 23. January 2008
EAC extraction logfile from 21. February 2009, 13:17
Rova / The Works (Volume 3)
Used drive : TSSTcorpCD/DVDW SH-S182M Adapter: 2 ID: 0
Read mode : Secure
Utilize accurate stream : Yes
Defeat audio cache : Yes
Make use of C2 pointers : No
Read offset correction : 6
Overread into Lead-In and Lead-Out : No
Fill up missing offset samples with silence : Yes
Delete leading and trailing silent blocks : No
Null samples used in CRC calculations : Yes
Used interface : Installed external ASPI interface
Used output format : User Defined Encoder
Selected bitrate : 1024 kBit/s
Quality : High
Add ID3 tag : No
Command line compressor : C:\Program Files\Exact Audio Copy\FLAC\FLAC.EXE
Additional command line options : -8 -V -T "ARTIST=%a" -T "TITLE=%t" -T "ALBUM=%g" -T "DATE=%y" -T "TRACKNUMBER=%n" -T "GENRE=%m" -T "COMMENT=%e" %s -o %d
TOC of the extracted CD
Track | Start | Length | Start sector | End sector
---------------------------------------------------------
1 | 0:00.00 | 16:49.30 | 0 | 75704
2 | 16:49.30 | 16:42.70 | 75705 | 150924
3 | 33:32.25 | 14:09.65 | 150925 | 214664
Range status and errors
Selected range
Filename C:\Documents and Settings\Igor\My Documents\My Music\eac\Rova - The Works (Volume 3).wav
Peak level 99.9 %
Range quality 100.0 %
Test CRC FC39D80B
Copy CRC FC39D80B
Copy OK
No errors occurred
AccurateRip summary
Track 1 not present in database
Track 2 not present in database
Track 3 not present in database
None of the tracks are present in the AccurateRip database
End of status report
Any questions -> support@pro-jazz.com. По всем вопросам пишите -> support@pro-jazz.com
08:25
170
Нет комментариев. Ваш будет первым!