Вы используете незарегистрированную версию компонента "Вкладки"!

Поиск

(Avant-Garde Easy Listening, Experimental, Future Jazz) Kammerflimmer Kollektief - Cicadidae - 2003, FLAC (tracks+.cue), lossless

(Avant-Garde Easy Listening, Experimental, Future Jazz) Kammerflimmer Kollektief - Cicadidae - 2003, FLAC (tracks+.cue), lossless
Треклист:
Kammerflimmer Kollektief - Cicadidae
Жанр: Avant-Garde Easy Listening, Experimental, Future Jazz
Год выпуска диска: 2003
Производитель диска: Germany
Аудио кодек: FLAC
Тип рипа: tracks+.cue
Битрейт аудио: lossless
Продолжительность: 42:40
Трэклист:
1 Neumond Inselhin 6:08
2 Sie Tranken Regen 0:51
3 Über Die Wasserscheide 4:31
4 Blood 1:20
5 ... Denn Nacht Ist Jetzt Schon Bald! 4:57
6 Sie Tranken Regen (Version) 5:12
7 Mantra 4:52
8 Eiderdaunen (Gerupft) 6:22
9 Irgendwann: Frühling 6:51
10 "There's A Weight On You, But You Can't Feel It" 1:30
Computer [Soundprocessing], Photography [Cover] - Heike Aumüller
Double Bass - Johannes Frisch
Drums, Vibraphone - Christopher Brunner
Guitar, Harmonium, Piano, Computer [Soundprocessing, Treatments], Arranged By, Producer - Thomas Weber
Saxophone - Dietrich Foth
Violin - Heike Wendelin
Music By:
Annette Peacock (tracks: 4)
Christopher Brunner (tracks: 6, 9)
Dietrich Foth (tracks: 6, 9)
Heike Aumüller (tracks: 2, 3, 6, 10)
Heike Wendelin (tracks: 6, 9)
Johannes Frisch (tracks: 6, 9)
Thomas Weber (tracks: 1, 3, 5 to 9)
Доп. информация:
 
EAC log
Exact Audio Copy V0.99 prebeta 4 from 23. January 2008
EAC extraction logfile from 2. November 2008, 11:16
Kammerflimmer Kollektief / Cicadidae
Used drive : LITE-ON DVDRW SOHW-1673S Adapter: 0 ID: 0
Read mode : Secure
Utilize accurate stream : Yes
Defeat audio cache : Yes
Make use of C2 pointers : No
Read offset correction : 12
Overread into Lead-In and Lead-Out : No
Fill up missing offset samples with silence : Yes
Delete leading and trailing silent blocks : No
Null samples used in CRC calculations : Yes
Used interface : Native Win32 interface for Win NT & 2000
Gap handling : Appended to previous track
Used output format : User Defined Encoder
Selected bitrate : 128 kBit/s
Quality : High
Add ID3 tag : No
Command line compressor : H:\Program Files\Exact Audio Copy\Flac\flac.exe
Additional command line options : -V -8 -T "artist=%a" -T "title=%t" -T "album=%g" -T "date=%y" -T "tracknumber=%n" -T "genre=%m" %s
TOC of the extracted CD
Track | Start | Length | Start sector | End sector
---------------------------------------------------------
1 | 0:00.00 | 6:08.34 | 0 | 27633
2 | 6:08.34 | 0:51.64 | 27634 | 31522
3 | 7:00.23 | 4:31.31 | 31523 | 51878
4 | 11:31.54 | 1:20.23 | 51879 | 57901
5 | 12:52.02 | 4:57.43 | 57902 | 80219
6 | 17:49.45 | 5:12.60 | 80220 | 103679
7 | 23:02.30 | 4:52.49 | 103680 | 125628
8 | 27:55.04 | 6:22.18 | 125629 | 154296
9 | 34:17.22 | 6:51.61 | 154297 | 185182
10 | 41:09.08 | 1:30.71 | 185183 | 192003
Track 1
Filename F:\Music Audio\FLAC\Kammerflimmer Kollektief - Cicadidae\01 - Neumond Inselhin.wav
Pre-gap length 0:00:02.00
Peak level 99.2 %
Track quality 100.0 %
Test CRC 69665CD5
Copy CRC 69665CD5
Track not present in AccurateRip database
Copy OK
Track 2
Filename F:\Music Audio\FLAC\Kammerflimmer Kollektief - Cicadidae\02 - Sie Tranken Regen.wav
Peak level 99.9 %
Track quality 100.0 %
Test CRC 08712EFF
Copy CRC 08712EFF
Track not present in AccurateRip database
Copy OK
Track 3
Filename F:\Music Audio\FLAC\Kammerflimmer Kollektief - Cicadidae\03 - Ьber Die Wasserscheide.wav
Peak level 99.4 %
Track quality 100.0 %
Test CRC 2E4394C7
Copy CRC 2E4394C7
Track not present in AccurateRip database
Copy OK
Track 4
Filename F:\Music Audio\FLAC\Kammerflimmer Kollektief - Cicadidae\04 - Blood.wav
Peak level 98.5 %
Track quality 100.0 %
Test CRC 2A45FD12
Copy CRC 2A45FD12
Track not present in AccurateRip database
Copy OK
Track 5
Filename F:\Music Audio\FLAC\Kammerflimmer Kollektief - Cicadidae\05 - ...Denn Nacht Ist Jetzt Schon Bald!.wav
Peak level 100.0 %
Track quality 100.0 %
Test CRC 58EE3B5F
Copy CRC 58EE3B5F
Track not present in AccurateRip database
Copy OK
Track 6
Filename F:\Music Audio\FLAC\Kammerflimmer Kollektief - Cicadidae\06 - Sie Tranken Regen (Version).wav
Peak level 99.6 %
Track quality 99.9 %
Test CRC 8E329491
Copy CRC 8E329491
Track not present in AccurateRip database
Copy OK
Track 7
Filename F:\Music Audio\FLAC\Kammerflimmer Kollektief - Cicadidae\07 - Mantra.wav
Peak level 99.4 %
Track quality 100.0 %
Test CRC F17340A4
Copy CRC F17340A4
Track not present in AccurateRip database
Copy OK
Track 8
Filename F:\Music Audio\FLAC\Kammerflimmer Kollektief - Cicadidae\08 - Eiderdaunen (Gerupft).wav
Peak level 99.7 %
Track quality 100.0 %
Test CRC C34C3D51
Copy CRC C34C3D51
Track not present in AccurateRip database
Copy OK
Track 9
Filename F:\Music Audio\FLAC\Kammerflimmer Kollektief - Cicadidae\09 - Irgendwann- Frьhling.wav
Peak level 99.6 %
Track quality 100.0 %
Test CRC A36A2D16
Copy CRC A36A2D16
Track not present in AccurateRip database
Copy OK
Track 10
Filename F:\Music Audio\FLAC\Kammerflimmer Kollektief - Cicadidae\10 - 'There's A Weight On You, But You Can't Feel It.'.wav
Peak level 99.5 %
Track quality 100.0 %
Test CRC 08F3F23C
Copy CRC 08F3F23C
Track not present in AccurateRip database
Copy OK
None of the tracks are present in the AccurateRip database
No errors occurred
End of status report
По всем вопросам пишите личное сообщение пользователю M0p94ok.
17:21
134
Нет комментариев. Ваш будет первым!