Вы используете незарегистрированную версию компонента "Вкладки"!

Поиск

(Modern Creative) Jason Adasiewicz's Rolldown - Varmint - 2009, FLAC (tracks+.cue), lossless, EAC

(Modern Creative) Jason Adasiewicz's Rolldown - Varmint - 2009, FLAC (tracks+.cue), lossless, EAC
Треклист:
Jason Adasiewicz's Rolldown - Varmint
Жанр: Modern Creative
Год выпуска диска: 2009
Производитель диска: Cuneiform
Аудио кодек: FLAC
Тип рипа: tracks+.cue
Битрейт аудио: lossless, EAC
Продолжительность: 50:50
Трэклист:
01. Green Grass - 6:01
02. Varmint - 8:36
03. Dagger - 7:14
04. Hide - 7:53
05. I Hope She Is Awake - 6:36
06. Punchbug - 8:22
07. The Griots - 6:08
Доп. информация: Jason Adasiewicz (vibraphone); Aram Shelton (clarinet, alto saxophone); Josh Berman (cornet); Frank Rosaly (drums).
 
О компании
A major force in Chicago’s jazz and improvisation circles, vibist Jason Adasiewicz’s second group-led release comprises the element of surprise along with familiar persuasions. With cool, and velvety horns choruses, the leader dishes out sustainable themes built on knotty time signatures and buoyant flows. As a vibist, Adasiewicz, works underneath, over-the-top and weaves throughout, while adding texture and keeping the listener on his or her toes sans any bombastic discourses.
The program features polytonal shadings conjured by the three-man frontline including reedman Aram Shelton and cornetist Josh Berman. They fuse off-kilter passages with counterbalancing statements. Yet on the piece titled “Hide,” the quintet aligns old school bop with a modern flair, where they intersperse avant-garde aspects with a 1960s like foundation amid a few wily and vociferous meltdowns. In addition, the band renders a brooding motif on the asymmetrical and self-regenerating type mindset the musicians exercise on “Punchbug,” where Shelton’s lyrical clarinet lines are shrewdly offset by Berman’s forceful cornet phrasings. It’s a study in multihued contrasts, indeed.
Adasiewicz and his band-mates conjure up a seamless blend of progressive-jazz and focused group interaction that attains a thoroughly enjoyable composite outlook. The artists morph the best of various musical notions and stylizations into a distinctive approach via these resonating performances that offer a prismatic exposition of compositional acumen and emotive improvisational movements.
- Glenn Astarita
If you listen closely, you can hear Jason Adasiewicz’s faint mumble mimicking the melody of his vibraphone solo on the title track of the new Varmint. It’s a time-honored technique—revealing that the best improvisers know exactly what they’re doing—and evidence of his rising stature as one of the foremost players on the instrument today.
On his second album leading the quintet Rolldown, the local standby’s mallet work glows over radiant postbop originals like “Green Grass” and “Punchbag,” illuminating a remarkable chemistry with drummer Frank Rosaly. Both percussionists lock in effortlessly with bassist Jason Roebke, and together their fierce swing anchors the flawless front line of cornetist Josh Berman and reedist Aram Shelton.
The 32-year-old Adasiewicz is fond of writing phrases that are catchy, yet rhythmically ambitious. As the combo faithfully carries out his clever compositions, it’s grown into one of the best working groups today.
By Areif Sless-Kitain
The second recording for Jason Adasiewicz with his quintet Rolldown takes the band into a distinct modern jazz arena, sporting equal parts of straight-ahead mainstream pacings alongside the bold, inventive, improvisational music of latter and current day Chicago. As a vibraphonist, he is deferring to his bandmates in the best spirit of teamwork, and admittedly would rather be a cog in the works than the driving force. This democracy has worked in his favor, not merely to divert attention away from his agile and lithe vibraphone playing. There's a group sound being developed, due to the sharp pitched alto saxophone of Aram Shelton, and Josh Berman, who is making strides and progressive statements on the more traditionally identified cornet. And there's a connection to the advanced jazz players from the '60s who made equally brash statements for the Blue Note label, folks like Jackie McLean, Andrew Hill, Bobby Hutcherson, Charles Tolliver, and Sam Rivers. Rolldown is most adept at turning a title like "Dagger" into a bluesy dirge via Shelton's ribald clarinet and the stoic cornet of Berman, or morphing "Hide" from Thelonious Monk-style angularities into a dredged-up, mucky consistency. "Varmint" is the perfect representation of a sneaky, snide, dangerous critter, rendered in a precise, prickly, yet loose melody not all that unlike something you might have heard from the Art Ensemble of Chicago in their mid-period ECM stage. As ironic as the other titles are representative, "Green Grass" is a churning post-bop swinger with some deft rhythm changes, effervescent in the energy and penetrating tone Adasiewicz exudes, while you hear the full, piquant, strained alto sound of Shelton quite similar to McLean or Arthur Blythe. In a driving-sideways, elusive, slippery, post-bop idea, "The Griots" punctuates and acknowledges the aforementioned Blue Note pioneers -- it's written by Andrew Hill. Where Adasiewicz himself shines and takes the lead is during "Punchbug," a macabre waltz contrasted by the silly clarinet of Shelton. Special mention should be made of bassist Jason Roebke and drummer Frank Rosaly, who are not mere timekeepers, but have innate knowledge as to the flexible rhythms, organic ins/outs, and smart-set soul of how this combo operates, lives, and breathes. Considering his relatively young age (32 at the time of this recording) and rapid progress as a maturing musician, it's safe to say Jason Adasiewicz has a tiger by the tail, though it also seems like he's wrestling with alligators, two varmints he apparently has tamed.
Michael G. Nastos
http://www.allaboutjazz.com/php/article.php?id=34431
 
Отчет EAC
Exact Audio Copy V0.99 prebeta 4 from 23. January 2008
EAC extraction logfile from 17. December 2009, 21:34
Jason Adasiewicz / Varmint (Rolldown)
Used drive : Optiarc DVD RW AD-7200S Adapter: 2 ID: 1
Read mode : Secure
Utilize accurate stream : Yes
Defeat audio cache : Yes
Make use of C2 pointers : No
Read offset correction : 48
Overread into Lead-In and Lead-Out : No
Fill up missing offset samples with silence : Yes
Delete leading and trailing silent blocks : No
Null samples used in CRC calculations : Yes
Used interface : Native Win32 interface for Win NT & 2000
Gap handling : Appended to previous track
Used output format : User Defined Encoder
Selected bitrate : 768 kBit/s
Quality : High
Add ID3 tag : No
Command line compressor : D:\Program Files\FLAC\flac.exe
Additional command line options : -V -8 -T "artist=%a" -T "title=%t" -T "album=%g" -T "date=%y" -T "tracknumber=%n" -T "genre=%m" %s
TOC of the extracted CD
Track | Start | Length | Start sector | End sector
---------------------------------------------------------
1 | 0:00.00 | 6:01.02 | 0 | 27076
2 | 6:01.02 | 8:36.29 | 27077 | 65805
3 | 14:37.31 | 7:14.02 | 65806 | 98357
4 | 21:51.33 | 7:52.41 | 98358 | 133798
5 | 29:43.74 | 6:35.64 | 133799 | 163487
6 | 36:19.63 | 8:22.07 | 163488 | 201144
7 | 44:41.70 | 6:08.36 | 201145 | 228780
Track 1
Filename I:\Music\WCD\01. Green Grass (Jason Adasiewicz - Varmint (Rolldown) - 2009).wav
Pre-gap length 0:00:02.00
Peak level 98.8 %
Track quality 100.0 %
Test CRC 21C559BF
Copy CRC 21C559BF
Track not present in AccurateRip database
Copy OK
Track 2
Filename I:\Music\WCD\02. Varmint (Jason Adasiewicz - Varmint (Rolldown) - 2009).wav
Peak level 98.8 %
Track quality 99.9 %
Test CRC 29347CED
Copy CRC 29347CED
Track not present in AccurateRip database
Copy OK
Track 3
Filename I:\Music\WCD\03. Dagger (Jason Adasiewicz - Varmint (Rolldown) - 2009).wav
Peak level 98.8 %
Track quality 100.0 %
Test CRC 3787DF82
Copy CRC 3787DF82
Track not present in AccurateRip database
Copy OK
Track 4
Filename I:\Music\WCD\04. Hide (Jason Adasiewicz - Varmint (Rolldown) - 2009).wav
Peak level 98.8 %
Track quality 99.9 %
Test CRC 12B8B34E
Copy CRC 12B8B34E
Track not present in AccurateRip database
Copy OK
Track 5
Filename I:\Music\WCD\05. I Hope She Is Awake (Jason Adasiewicz - Varmint (Rolldown) - 2009).wav
Peak level 98.8 %
Track quality 100.0 %
Test CRC 94956071
Copy CRC A96D2B89
Track not present in AccurateRip database
Copy OK
Track 6
Filename I:\Music\WCD\06. Punchbug (Jason Adasiewicz - Varmint (Rolldown) - 2009).wav
Peak level 98.8 %
Track quality 99.9 %
Test CRC 9AD9DBCF
Copy CRC 9AD9DBCF
Track not present in AccurateRip database
Copy OK
Track 7
Filename I:\Music\WCD\07. The Griots (Jason Adasiewicz - Varmint (Rolldown) - 2009).wav
Peak level 98.8 %
Track quality 100.0 %
Test CRC AEF8CE25
Copy CRC AEF8CE25
Track not present in AccurateRip database
Copy OK
None of the tracks are present in the AccurateRip database
No errors occurred
End of status report
 
Содержание индексной карты (.CUE)
REM GENRE Jazz
REM DATE 2009
REM DISCID 620BEA07
REM COMMENT "ExactAudioCopy v0.99pb4"
FILE "01. Green Grass (Jason Adasiewicz - Varmint (Rolldown) - 2009).wav" WAVE
TRACK 01 AUDIO
INDEX 01 00:00:00
FILE "02. Varmint (Jason Adasiewicz - Varmint (Rolldown) - 2009).wav" WAVE
TRACK 02 AUDIO
INDEX 01 00:00:00
FILE "03. Dagger (Jason Adasiewicz - Varmint (Rolldown) - 2009).wav" WAVE
TRACK 03 AUDIO
INDEX 01 00:00:00
FILE "04. Hide (Jason Adasiewicz - Varmint (Rolldown) - 2009).wav" WAVE
TRACK 04 AUDIO
INDEX 01 00:00:00
FILE "05. I Hope She Is Awake (Jason Adasiewicz - Varmint (Rolldown) - 2009).wav" WAVE
TRACK 05 AUDIO
INDEX 01 00:00:00
FILE "06. Punchbug (Jason Adasiewicz - Varmint (Rolldown) - 2009).wav" WAVE
TRACK 06 AUDIO
INDEX 01 00:00:00
FILE "07. The Griots (Jason Adasiewicz - Varmint (Rolldown) - 2009).wav" WAVE
TRACK 07 AUDIO
INDEX 01 00:00:00
По всем вопросам пишите личное сообщение пользователю M0p94ok.
17:20
136
Нет комментариев. Ваш будет первым!