Вы используете незарегистрированную версию компонента "Вкладки"!

Поиск

(Avant-Garde Jazz) John Coltrane - The John Coltrane Quartet Plays - 1965, FLAC (tracks+.cue), lossless

Треклист:
John Coltrane - The John Coltrane Quartet Plays
Жанр: Avant-Garde Jazz
Год выпуска диска: 1965
Производитель диска: EC
Аудио кодек: FLAC
Тип рипа: tracks+.cue
Битрейт аудио: lossless
Продолжительность: 59:29
Лейбл: Impulse!
Источник:
Трэклист:
1. Chim Chim Cheree
2. Brazilia
3. Nature Boy
4. Song of Praise
5. Feelin' Good
6. Nature Boy (first version)
7. Nature Boy (live version)
Музыканты:
John Coltrane, soprato & tenor sax
McCoy Tyner, piano
Jimmy Garrison, bass
Elvin Jones, drums
Доп. информация: На замену теме со статусом "сомнительно".
 
Отчёт EAC
Exact Audio Copy V0.99 prebeta 5 from 4. May 2009
EAC extraction logfile from 19. November 2009, 20:16
John Coltrane / The John Coltrane Quartet Plays
Used drive : TSSTcorpCD/DVDW TS-H552L Adapter: 3 ID: 0
Read mode : Secure
Utilize accurate stream : Yes
Defeat audio cache : Yes
Make use of C2 pointers : No
Read offset correction : 6
Overread into Lead-In and Lead-Out : No
Fill up missing offset samples with silence : Yes
Delete leading and trailing silent blocks : No
Null samples used in CRC calculations : Yes
Used interface : Native Win32 interface for Win NT & 2000
Gap handling : Appended to previous track
Used output format : User Defined Encoder
Selected bitrate : 1024 kBit/s
Quality : High
Add ID3 tag : No
Command line compressor : C:\Program Files\FLAC\flac.exe
Additional command line options : -6 -V -T "ARTIST=%a" -T "TITLE=%t" -T "ALBUM=%g" -T "DATE=%y" -T "TRACKNUMBER=%n" -T "GENRE=%m" -T "COMMENT=EAC FLAC -6" %s
TOC of the extracted CD
Track | Start | Length | Start sector | End sector
---------------------------------------------------------
1 | 0:00.00 | 6:59.47 | 0 | 31471
2 | 6:59.47 | 12:57.43 | 31472 | 89789
3 | 19:57.15 | 8:04.00 | 89790 | 126089
4 | 28:01.15 | 9:54.72 | 126090 | 170711
5 | 37:56.12 | 6:25.33 | 170712 | 199619
6 | 44:21.45 | 7:06.50 | 199620 | 231619
7 | 51:28.20 | 8:00.62 | 231620 | 267681
Track 1
Filename C:\John Coltrane - The John Coltrane Quartet Plays (1965) {1997 Impulse! Remaster}\01 - Chim Chim Cheree.wav
Pre-gap length 0:00:02.00
Peak level 99.9 %
Track quality 100.0 %
Test CRC 2BCEA096
Copy CRC 2BCEA096
Accurately ripped (confidence 3) [1B3BA460]
Copy OK
Track 2
Filename C:\John Coltrane - The John Coltrane Quartet Plays (1965) {1997 Impulse! Remaster}\02 - Brazilia.wav
Peak level 100.0 %
Track quality 100.0 %
Test CRC 28151CD3
Copy CRC 28151CD3
Accurately ripped (confidence 3) [19322FBD]
Copy OK
Track 3
Filename C:\John Coltrane - The John Coltrane Quartet Plays (1965) {1997 Impulse! Remaster}\03 - Nature Boy.wav
Peak level 100.0 %
Track quality 100.0 %
Test CRC 0CFEC48E
Copy CRC 0CFEC48E
Accurately ripped (confidence 3) [04083D07]
Copy OK
Track 4
Filename C:\John Coltrane - The John Coltrane Quartet Plays (1965) {1997 Impulse! Remaster}\04 - Song Of Praise.wav
Peak level 100.0 %
Track quality 100.0 %
Test CRC DE663391
Copy CRC DE663391
Accurately ripped (confidence 3) [1E78F371]
Copy OK
Track 5
Filename C:\John Coltrane - The John Coltrane Quartet Plays (1965) {1997 Impulse! Remaster}\05 - Feelin' Good.wav
Peak level 99.9 %
Track quality 100.0 %
Test CRC 659E0FE9
Copy CRC 659E0FE9
Accurately ripped (confidence 3) [79CA8B9A]
Copy OK
Track 6
Filename C:\John Coltrane - The John Coltrane Quartet Plays (1965) {1997 Impulse! Remaster}\06 - Nature Boy (first version).wav
Peak level 94.0 %
Track quality 99.9 %
Test CRC 2BC6C2FF
Copy CRC 2BC6C2FF
Accurately ripped (confidence 3) [7ABB4371]
Copy OK
Track 7
Filename C:\John Coltrane - The John Coltrane Quartet Plays (1965) {1997 Impulse! Remaster}\07 - Nature Boy (live version).wav
Peak level 92.8 %
Track quality 99.9 %
Test CRC EE1D9E7C
Copy CRC EE1D9E7C
Accurately ripped (confidence 2) [F9E8E7E8]
Copy OK
All tracks accurately ripped
No errors occurred
End of status report
 
Audiochecker
AUDIOCHECKER v1.2 - by Dester - opdester@freemail.hu
~~~~~~~~~~~~~~~~~
1 -===- E:\Up-Down\The John Coltrane Quartet Plays\01 - Chim Chim Cheree.flac
Extracted successfully
Conclusion: This track looks like CDDA with probability 100%
2 -===- E:\Up-Down\The John Coltrane Quartet Plays\02 - Brazilia.flac
Extracted successfully
Conclusion: This track looks like CDDA with probability 100%
3 -===- E:\Up-Down\The John Coltrane Quartet Plays\03 - Nature Boy.flac
Extracted successfully
Conclusion: This track looks like CDDA with probability 100%
4 -===- E:\Up-Down\The John Coltrane Quartet Plays\04 - Song Of Praise.flac
Extracted successfully
Conclusion: This track looks like CDDA with probability 100%
5 -===- E:\Up-Down\The John Coltrane Quartet Plays\05 - Feelin' Good.flac
Extracted successfully
Conclusion: This track looks like CDDA with probability 100%
6 -===- E:\Up-Down\The John Coltrane Quartet Plays\06 - Nature Boy (first version).flac
Extracted successfully
Conclusion: This track looks like CDDA with probability 100%
7 -===- E:\Up-Down\The John Coltrane Quartet Plays\07 - Nature Boy (live version).flac
Extracted successfully
Conclusion: This track looks like CDDA with probability 100%
БИОГРАФИЯ и ДИСКОГРАФИЯ Джона Колтрейна
Any questions -> support@pro-jazz.com. По всем вопросам пишите -> support@pro-jazz.com
17:21
114
Нет комментариев. Ваш будет первым!