Поиск

(Avant-Garde) David S. Ware String Ensemble - Threads - 2003, APE (image + .cue), lossless

Треклист:
David S. Ware String Ensemble - Threads
Страна: Россия(ПАР медиа мьюзик)
Жанр: Avant-Garde
Год выпуска: 2003
Формат: APE (image + .cue)Битрейт аудио: lossless
Продолжительность: 44:45
Трэклист:
1 Ananda Rotation /Shipp, Ware/ 6:39
2 Sufic Passages /Ware/ 9:02
3 Weave, Pt. 1 /Brown, Ware/ 3:21
4 Threads /Ware/ 13:00
5 Carousel of Lightness /Ware/ 9:02
6 Weave, Pt. 2 /Brown, Ware/ 3:41
Guillermo E. Brown Drums
Mat Maneri Viola- http://rutracker.org/forum/viewtopic.php?t=694627 ,
http://rutracker.org/forum/viewtopic.php?t=695995
William Parker Bass- http://rutracker.org/forum/viewtopic.php?t=700736
Daniel Bernard Roumain Violin
Matthew Shipp Piano, Producer, Korg Synthesizer, Art Direction, String Pads
David S. Ware Sax (Tenor), Producer
Доп. информация: +Сovers
 
скрытый текст
Exact Audio Copy V0.99 prebeta 3 from 28. July 2007
Отчёт EAC об извлечении, выполненном 8. марта 2008, 12:38
David S. Ware String Ensemble / Threads
Дисковод: ASUS DRW-1608P3S Adapter: 0 ID: 0
Режим чтения : Достоверность
Использование точного потока : Да
Отключение кэша аудио : Да
Использование указателей C2 : Нет
Коррекция смещения при чтении : 48
Способность читать области Lead-in и Lead-out : Нет
Заполнение пропущенных сэмплов тишиной : Да
Удаление блоков с тишиной в начале и конце : Нет
При вычислениях CRC использовались нулевые сэмплы : Да
Интерфейс : Установленный внешний ASPI-интерфейс
Выходной формат : Monkey's Audio Lossless Encoder v3.99 DLL
Формат сэмплов : High Lossless Compression
TOC извлечённого CD
Трек | Старт | Длительность | Начальный сектор | Конечный сектор
---------------------------------------------------------------------
1 | 0:00.00 | 6:39.06 | 0 | 29930
2 | 6:39.06 | 9:02.16 | 29931 | 70596
3 | 15:41.22 | 3:21.27 | 70597 | 85698
4 | 19:02.49 | 13:00.47 | 85699 | 144245
5 | 32:03.21 | 9:02.22 | 144246 | 184917
6 | 41:05.43 | 3:41.13 | 184918 | 201505
Характеристики диапазона извлечения и сообщения об ошибках
Выбранный диапазон
Имя файла C:\Documents and Settings\1\Рабочий стол\David S. Ware String Ensemble - Threads.ape
Пиковый уровень 100.0 %
Качество диапазона 99.9 %
CRC теста A7A807F7
CRC копии A7A807F7
Копирование... OK
Ошибок не произошло
Конец отчёта
Приватный:
Нет (DHT включён)
Размер:
289.15 Мб (303,191,517 байт) » файлов: 9
Участники:
0 раздают, 0 качают (0 участников всего)
Внешние участники:
3 раздают, 1 качают (4 участников всего) [ Обновить ]
Есть вопросы - пишите личное сообщение пользователю M0p94ok.
23:56
60
Нет комментариев. Ваш будет первым!