Поиск

(Avant-Garde) Dorgon- Dorgon IIII - 1997, APE (image + .cue), lossless

Треклист:
Dorgon- Dorgon IIII
Страна: France
Жанр: Avant-Garde
Год выпуска: 1997
Формат: APE (image + .cue)
Битрейт аудио: lossless
Продолжительность: 63:03
Трэклист:
1 String Quartet
2 Graphic#1
3 Study#2
4 Hardcore(Brooklyn)
5 For Ja
Rec. in Paris(IRCAM) 1954,1972,1967+1997.

Доп. информация: Рип с фирменного диска.Сovers-ручной работы,фронт.вкладыш на куске картона для ящиков(сканы в наличии)
Год выпуска не указан.
 
скрытый текст
Exact Audio Copy V0.99 prebeta 3 from 28. July 2007
Отчёт EAC об извлечении, выполненном 7. марта 2008, 19:33
Dorgon / Dorgon IIII
Дисковод: ASUS DRW-1608P3S Adapter: 0 ID: 0
Режим чтения : Достоверность
Использование точного потока : Да
Отключение кэша аудио : Да
Использование указателей C2 : Нет
Коррекция смещения при чтении : 48
Способность читать области Lead-in и Lead-out : Нет
Заполнение пропущенных сэмплов тишиной : Да
Удаление блоков с тишиной в начале и конце : Нет
При вычислениях CRC использовались нулевые сэмплы : Да
Интерфейс : Установленный внешний ASPI-интерфейс
Выходной формат : Monkey's Audio Lossless Encoder v3.99 DLL
Формат сэмплов : High Lossless Compression
TOC извлечённого CD
Трек | Старт | Длительность | Начальный сектор | Конечный сектор
---------------------------------------------------------------------
1 | 0:00.00 | 13:23.09 | 0 | 60233
2 | 13:23.09 | 2:35.16 | 60234 | 71874
3 | 15:58.25 | 7:00.45 | 71875 | 103419
4 | 22:58.70 | 8:35.09 | 103420 | 142053
5 | 31:34.04 | 31:29.02 | 142054 | 283730
Характеристики диапазона извлечения и сообщения об ошибках
Выбранный диапазон
Имя файла C:\Documents and Settings\1\Рабочий стол\Dorgon - Dorgon IIII.ape
Пиковый уровень 100.0 %
Качество диапазона 100.0 %
CRC теста 97D0B4AD
CRC копии 97D0B4AD
Копирование... OK
Ошибок не произошло
Конец отчёта
Приватный:
Нет (DHT включён)
Размер:
292.90 Мб (307,131,444 байт) » файлов: 9
Участники:
0 раздают, 0 качают (0 участников всего)
Внешние участники:
1 раздают, 0 качают (1 участников всего) [ Обновить ]
Есть вопросы - пишите личное сообщение пользователю M0p94ok.
23:55
65
Нет комментариев. Ваш будет первым!