Поиск

(Avant-Garde,Free) The Trio(John Surman,Stu Martin,Barre Phillips)- Conflagration/1971/ - 1995, APE (image + .cue), lossless

Треклист:
The Trio(John Surman,Stu Martin,Barre Phillips) - Conflagration/1971/
Страна: U.K.
Жанр: Avant-Garde,Free
Год выпуска: 1995
Формат: APE (image + .cue)
Битрейт аудио: lossless
Продолжительность: 48:32
Трэклист:
1 Conflagration /Phillips/ 7:43
2 Malachite /Surman/ 9:06
3 Nuts /Martin/ 7:52
4 6's and 7's /Phillips/ 7:45
5 B /Martin/ 6:32
6 Afore the Morrow /Surman/ 9:34
Harry Beckett Trumpet, Cornet
Marc Charig Cornet
Chick Corea Piano, Keyboards
Peter Eden Producer
Nick Evans Trombone
Malcolm Griffiths Trombone
Dave Holland Bass
John Marshall Drums
Stu Martin Drums
Mike Osborne Clarinet
Barre Phillips Bass
Alan Skidmore Flute, Sax (Soprano), Sax (Tenor), Wind
Stan Suloman Wind
Stan Sulzmann Clarinet, Flute
John Surman Clarinet (Bass), Saxophone, Sax (Baritone), Sax (Soprano)
John Taylor Piano
Kenny Wheeler Trumpet, Flugelhorn, Horn
Доп. информация: +Covers.
 
скрытый текст
Exact Audio Copy V0.99 prebeta 3 from 28. July 2007
Отчёт EAC об извлечении, выполненном 8. марта 2008, 15:09
The Trio / Conflagration
Дисковод: ASUS DRW-1608P3S Adapter: 0 ID: 0
Режим чтения : Достоверность
Использование точного потока : Да
Отключение кэша аудио : Да
Использование указателей C2 : Нет
Коррекция смещения при чтении : 48
Способность читать области Lead-in и Lead-out : Нет
Заполнение пропущенных сэмплов тишиной : Да
Удаление блоков с тишиной в начале и конце : Нет
При вычислениях CRC использовались нулевые сэмплы : Да
Интерфейс : Установленный внешний ASPI-интерфейс
Выходной формат : Monkey's Audio Lossless Encoder v3.99 DLL
Формат сэмплов : High Lossless Compression
TOC извлечённого CD
Трек | Старт | Длительность | Начальный сектор | Конечный сектор
---------------------------------------------------------------------
1 | 0:00.32 | 7:43.55 | 32 | 34811
2 | 7:44.12 | 9:06.33 | 34812 | 75794
3 | 16:50.45 | 7:52.30 | 75795 | 111224
4 | 24:43.00 | 7:45.20 | 111225 | 146119
5 | 32:28.20 | 6:32.37 | 146120 | 175556
6 | 39:00.57 | 9:34.50 | 175557 | 218656
Характеристики диапазона извлечения и сообщения об ошибках
Выбранный диапазон
Имя файла C:\Documents and Settings\1\Рабочий стол\The Trio - Conflagration.ape
Пиковый уровень 92.6 %
Качество диапазона 100.0 %
CRC теста D52CE275
CRC копии D52CE275
Копирование... OK
Ошибок не произошло
Конец отчёта
Приватный:
Нет (DHT включён)
Размер:
290.37 Мб (304,473,826 байт) » файлов: 7
Участники:
0 раздают, 0 качают (0 участников всего)
Внешние участники:
1 раздают, 0 качают (1 участников всего) [ Обновить ]
Есть вопросы - пишите личное сообщение пользователю M0p94ok.
23:57
35
Нет комментариев. Ваш будет первым!