Вы используете незарегистрированную версию компонента "Вкладки"!

Поиск

(Avant-Garde, Contemporary Jazz) Marc Ribot - Don't Blame Me - 1995, FLAC (tracks+.cue), lossless

(Avant-Garde, Contemporary Jazz) Marc Ribot - Don't Blame Me - 1995, FLAC (tracks+.cue), lossless
Треклист:
Marc Ribot / Don't Blame Me
Жанр: Avant-Garde, Contemporary Jazz
Страна-производитель диска: Japan
Год издания: 1995
Издатель (лейбл): DIW Records
Номер по каталогу: DIW-902
Аудиокодек: FLAC (*.flac)
Тип рипа: tracks+.cue
Битрейт аудио: lossless
Продолжительность: 47:42
Источник (релизер): Max Monteiro
Наличие сканов в содержимом раздачи: нет
Треклист:
01. I’m in the Mood for Love (Jimmy McHugh) 2:51
02. Noise #1 (Marc Ribot) 2:23
03. Don’t Blame Me (Jimmy McHugh) 5:51
04. Ghosts (Albert Ayler) 4:54
05. Spigot (Marc Ribot) 4:10
06. Body and Soul (John Green) 3:05
07. Bouncin’ Around (Gus DeLoof) 3:19
08. Solitude (Duke Ellington) 4:36
09. Dinah (Harry Akst) 3:10
10. Song for Che (Charlie Haden) 4:45
11. These Foolish Things (Jack Strachey & Harry Link) 2:21
12. Noise #2 (Marc Ribot) 2:07
13. Ol’ Man River (Jerome Kern) 4:11
Recorded in NYC in 1994 and 1995.
Marc Ribot – Guitar
 
Лог создания рипа
Exact Audio Copy V1.0 beta 3 from 29. August 2011
EAC extraction logfile from 8. June 2013, 16:37
Marc Ribot / Don't Blame Me
Used drive : SlimtypeeNAU508 5 Adapter: 1 ID: 0
Read mode : Secure
Utilize accurate stream : Yes
Defeat audio cache : Yes
Make use of C2 pointers : No
Read offset correction : 6
Overread into Lead-In and Lead-Out : No
Fill up missing offset samples with silence : Yes
Delete leading and trailing silent blocks : No
Null samples used in CRC calculations : Yes
Used interface : Native Win32 interface for Win NT & 2000
Gap handling : Appended to previous track
Used output format : User Defined Encoder
Selected bitrate : 768 kBit/s
Quality : High
Add ID3 tag : No
Command line compressor : C:\Program Files (x86)\Exact Audio Copy\Flac\flac.exe
Additional command line options : -8 -V -T "ARTIST=%artist%" -T "TITLE=%title%" -T "ALBUM=%albumtitle%" -T "DATE=%year%" -T "TRACKNUMBER=%tracknr%" -T "GENRE=%genre%" -T "PERFORMER=%albuminterpret%" -T "COMPOSER=%composer%" %haslyrics%--tag-from-file=LYRICS="%lyricsfile%"%haslyrics% -T "ALBUMARTIST=%albumartist%" -T "DISCNUMBER=%cdnumber%" -T "TOTALDISCS=%totalcds%" -T "TOTALTRACKS=%numtracks%" -T "COMMENT=%comment%" %source% -o %dest%
TOC of the extracted CD
Track | Start | Length | Start sector | End sector
---------------------------------------------------------
1 | 0:00.00 | 2:50.42 | 0 | 12791
2 | 2:50.42 | 2:22.60 | 12792 | 23501
3 | 5:13.27 | 5:51.00 | 23502 | 49826
4 | 11:04.27 | 4:54.25 | 49827 | 71901
5 | 15:58.52 | 4:10.35 | 71902 | 90686
6 | 20:09.12 | 3:04.42 | 90687 | 104528
7 | 23:13.54 | 3:18.71 | 104529 | 119449
8 | 26:32.50 | 4:35.72 | 119450 | 140146
9 | 31:08.47 | 3:09.53 | 140147 | 154374
10 | 34:18.25 | 4:44.50 | 154375 | 175724
11 | 39:03.00 | 2:20.60 | 175725 | 186284
12 | 41:23.60 | 2:06.57 | 186285 | 195791
13 | 43:30.42 | 4:11.25 | 195792 | 214641
Track 1
Filename C:\EAC rips\01 - I'm in the Mood for Love.wav
Pre-gap length 0:00:02.00
Peak level 98.1 %
Extraction speed 1.9 X
Track quality 100.0 %
Test CRC 75F5DCE7
Copy CRC 75F5DCE7
Accurately ripped (confidence 2) [AC82B42F] (AR v1)
Copy OK
Track 2
Filename C:\EAC rips\02 - Noise #1.wav
Peak level 48.1 %
Extraction speed 2.0 X
Track quality 100.0 %
Test CRC 1BE3AE13
Copy CRC 1BE3AE13
Accurately ripped (confidence 2) [0F029741] (AR v1)
Copy OK
Track 3
Filename C:\EAC rips\03 - Don't Blame Me.wav
Peak level 79.8 %
Extraction speed 2.5 X
Track quality 100.0 %
Test CRC F7D4B688
Copy CRC F7D4B688
Accurately ripped (confidence 2) [DE04E601] (AR v1)
Copy OK
Track 4
Filename C:\EAC rips\04 - Ghosts.wav
Peak level 98.8 %
Extraction speed 2.7 X
Track quality 100.0 %
Test CRC 2C82F1A6
Copy CRC 2C82F1A6
Accurately ripped (confidence 2) [880BBE4A] (AR v1)
Copy OK
Track 5
Filename C:\EAC rips\05 - Spigot.wav
Peak level 66.5 %
Extraction speed 2.9 X
Track quality 100.0 %
Test CRC 03EC9334
Copy CRC 03EC9334
Accurately ripped (confidence 2) [FB38C134] (AR v1)
Copy OK
Track 6
Filename C:\EAC rips\06 - Body and Soul.wav
Peak level 98.8 %
Extraction speed 2.3 X
Track quality 99.9 %
Test CRC 2A18A35B
Copy CRC 2A18A35B
Accurately ripped (confidence 2) [D3DBB138] (AR v1)
Copy OK
Track 7
Filename C:\EAC rips\07 - Bouncin' Around.wav
Pre-gap length 0:00:01.47
Peak level 98.8 %
Extraction speed 3.1 X
Track quality 100.0 %
Test CRC 5365C3F6
Copy CRC 5365C3F6
Accurately ripped (confidence 2) [AA2803D5] (AR v1)
Copy OK
Track 8
Filename C:\EAC rips\08 - Solitude.wav
Peak level 98.8 %
Extraction speed 3.4 X
Track quality 100.0 %
Test CRC A2C48010
Copy CRC A2C48010
Accurately ripped (confidence 2) [2E93878B] (AR v1)
Copy OK
Track 9
Filename C:\EAC rips\09 - Dinah.wav
Pre-gap length 0:00:00.62
Peak level 85.8 %
Extraction speed 3.4 X
Track quality 100.0 %
Test CRC 9E805A36
Copy CRC 9E805A36
Accurately ripped (confidence 2) [F56DECB2] (AR v1)
Copy OK
Track 10
Filename C:\EAC rips\10 - Song for Che.wav
Peak level 98.8 %
Extraction speed 3.7 X
Track quality 100.0 %
Test CRC E30CC2AF
Copy CRC E30CC2AF
Accurately ripped (confidence 2) [E5BBFCAE] (AR v1)
Copy OK
Track 11
Filename C:\EAC rips\11 - These Foolish Things.wav
Pre-gap length 0:00:02.30
Peak level 98.8 %
Extraction speed 3.4 X
Track quality 100.0 %
Test CRC 81A04AEA
Copy CRC 81A04AEA
Accurately ripped (confidence 2) [ED97EF3B] (AR v1)
Copy OK
Track 12
Filename C:\EAC rips\12 - Noise #2.wav
Pre-gap length 0:00:02.58
Peak level 30.8 %
Extraction speed 3.3 X
Track quality 100.0 %
Test CRC 17F2FBEA
Copy CRC 17F2FBEA
Accurately ripped (confidence 2) [7F6A2146] (AR v1)
Copy OK
Track 13
Filename C:\EAC rips\13 - Ol' Man River.wav
Pre-gap length 0:00:02.32
Peak level 34.1 %
Extraction speed 3.2 X
Track quality 99.9 %
Test CRC 0C2D5CD8
Copy CRC 0C2D5CD8
Accurately ripped (confidence 2) [2D614F1E] (AR v1)
Copy OK
All tracks accurately ripped
No errors occurred
End of status report
---- CUETools DB Plugin V2.1.4
[CTDB TOCID: zUG1b.WFXrSWxHDhbYw_fbg.cXQ-] found
Submit result: zUG1b.WFXrSWxHDhbYw_fbg.cXQ- has been confirmed
Track | CTDB Status
1 | (3/3) Accurately ripped
2 | (3/3) Accurately ripped
3 | (3/3) Accurately ripped
4 | (3/3) Accurately ripped
5 | (3/3) Accurately ripped
6 | (3/3) Accurately ripped
7 | (3/3) Accurately ripped
8 | (3/3) Accurately ripped
9 | (3/3) Accurately ripped
10 | (3/3) Accurately ripped
11 | (3/3) Accurately ripped
12 | (3/3) Accurately ripped
13 | (3/3) Accurately ripped
==== Log checksum D0824188B5C8742603218BB1D97F97F5726589A254033E2BD22030A5DCC84A88 ====
 
Содержание индексной карты (.CUE)
REM GENRE Jazz
REM DATE 1995
REM DISCID A40B2D0D
REM COMMENT "ExactAudioCopy v1.0b3"
PERFORMER "Marc Ribot"
TITLE "Don't Blame Me"
FILE "01 - I'm in the Mood for Love.wav" WAVE
TRACK 01 AUDIO
TITLE "I'm in the Mood for Love"
PERFORMER "Marc Ribot"
INDEX 01 00:00:00
FILE "02 - Noise #1.wav" WAVE
TRACK 02 AUDIO
TITLE "Noise #1"
PERFORMER "Marc Ribot"
INDEX 01 00:00:00
FILE "03 - Don't Blame Me.wav" WAVE
TRACK 03 AUDIO
TITLE "Don't Blame Me"
PERFORMER "Marc Ribot"
INDEX 01 00:00:00
FILE "04 - Ghosts.wav" WAVE
TRACK 04 AUDIO
TITLE "Ghosts"
PERFORMER "Marc Ribot"
INDEX 01 00:00:00
FILE "05 - Spigot.wav" WAVE
TRACK 05 AUDIO
TITLE "Spigot"
PERFORMER "Marc Ribot"
INDEX 01 00:00:00
FILE "06 - Body and Soul.wav" WAVE
TRACK 06 AUDIO
TITLE "Body and Soul"
PERFORMER "Marc Ribot"
INDEX 01 00:00:00
TRACK 07 AUDIO
TITLE "Bouncin' Around"
PERFORMER "Marc Ribot"
INDEX 00 03:02:70
FILE "07 - Bouncin' Around.wav" WAVE
INDEX 01 00:00:00
FILE "08 - Solitude.wav" WAVE
TRACK 08 AUDIO
TITLE "Solitude"
PERFORMER "Marc Ribot"
INDEX 01 00:00:00
TRACK 09 AUDIO
TITLE "Dinah"
PERFORMER "Marc Ribot"
INDEX 00 04:35:10
FILE "09 - Dinah.wav" WAVE
INDEX 01 00:00:00
FILE "10 - Song for Che.wav" WAVE
TRACK 10 AUDIO
TITLE "Song for Che"
PERFORMER "Marc Ribot"
INDEX 01 00:00:00
TRACK 11 AUDIO
TITLE "These Foolish Things"
PERFORMER "Marc Ribot"
INDEX 00 04:42:20
FILE "11 - These Foolish Things.wav" WAVE
INDEX 01 00:00:00
TRACK 12 AUDIO
TITLE "Noise #2"
PERFORMER "Marc Ribot"
INDEX 00 02:18:02
FILE "12 - Noise #2.wav" WAVE
INDEX 01 00:00:00
TRACK 13 AUDIO
TITLE "Ol' Man River"
PERFORMER "Marc Ribot"
INDEX 00 02:04:25
FILE "13 - Ol' Man River.wav" WAVE
INDEX 01 00:00:00
Any questions -> support@pro-jazz.com. По всем вопросам пишите -> support@pro-jazz.com
14:33
154
Нет комментариев. Ваш будет первым!