Вы используете незарегистрированную версию компонента "Вкладки"!

Поиск

(Contemporary Jazz, Free Improvisation) Andrea Centazzo, Roberto Ottaviano - In A Rainy Day - 2012, FLAC (image+.cue), lossless

(Contemporary Jazz, Free Improvisation) Andrea Centazzo, Roberto Ottaviano - In A Rainy Day - 2012, FLAC (image+.cue), lossless
Треклист:
Andrea Centazzo, Roberto Ottaviano / In A Rainy Day
Жанр: Contemporary Jazz, Free Improvisation
Страна-производитель диска: US
Год издания: 2012
Издатель (лейбл): Ictus Records
Номер по каталогу: 163
Аудиокодек: FLAC (*.flac)
Тип рипа: image+.cue
Битрейт аудио: lossless
Продолжительность: 60:30
Источник (релизер): cd
Наличие сканов в содержимом раздачи: нет
Треклист:
1 Mystery Man 8:34
2 In A Balinese Garden #1 7:04
3 A Kind Of Duke's Blue 5:56
4 Saty For Me 5:56
5 Eulogy -For Paul Motian- 5:25
6 In A Balinese Garden #2 5:46
7 The Train You Never Take 5:33
8 Pollock On The Beach -For Jackson Pollock- 4:41
9 Rituals 6:27
10 It Gets Stormy 4:25
 
Лог создания рипа
Exact Audio Copy V1.0 beta 2 from 29. April 2011
EAC extraction logfile from 8. June 2013, 20:23
Andrea Centazzo, Roberto Ottaviano / In A Rainy Day
Used drive : Optiarc DVD RW AD-7170A Adapter: 0 ID: 0
Read mode : Secure
Utilize accurate stream : Yes
Defeat audio cache : Yes
Make use of C2 pointers : No
Read offset correction : 48
Overread into Lead-In and Lead-Out : No
Fill up missing offset samples with silence : Yes
Delete leading and trailing silent blocks : No
Null samples used in CRC calculations : Yes
Used interface : Native Win32 interface for Win NT & 2000
Used output format : User Defined Encoder
Selected bitrate : 320 kBit/s
Quality : High
Add ID3 tag : No
Command line compressor : C:\Program Files\Exact Audio Copy\Flac\flac.exe
Additional command line options : -V -8 -T "Date=%year%" -T "Genre=%genre%" %source%
TOC of the extracted CD
Track | Start | Length | Start sector | End sector
---------------------------------------------------------
1 | 0:00.00 | 8:42.51 | 0 | 39200
2 | 8:42.51 | 7:08.07 | 39201 | 71307
3 | 15:50.58 | 5:37.27 | 71308 | 96609
4 | 21:28.10 | 6:00.68 | 96610 | 123677
5 | 27:29.03 | 5:29.25 | 123678 | 148377
6 | 32:58.28 | 5:50.01 | 148378 | 174628
7 | 38:48.29 | 6:31.22 | 174629 | 203975
8 | 45:19.51 | 4:45.20 | 203976 | 225370
9 | 50:04.71 | 6:00.09 | 225371 | 252379
10 | 56:05.05 | 4:25.16 | 252380 | 272270
Range status and errors
Selected range
Filename K:\ЕАС\Andrea Centazzo, Roberto Ottaviano - In A Rainy Day.wav
Peak level 98.8 %
Extraction speed 5.3 X
Range quality 100.0 %
Test CRC 01147855
Copy CRC 01147855
Copy OK
No errors occurred
AccurateRip summary
Track 1 not present in database
Track 2 not present in database
Track 3 not present in database
Track 4 not present in database
Track 5 not present in database
Track 6 not present in database
Track 7 not present in database
Track 8 not present in database
Track 9 not present in database
Track 10 not present in database
None of the tracks are present in the AccurateRip database
End of status report
==== Log checksum F76306847551B73E27DFAC4564CC075601D51DE7AF82C1F4583446752DB2CB9D ====
 
Содержание индексной карты (.CUE)
REM GENRE Jazz
REM DATE 2012
REM DISCID 780E2E0A
REM COMMENT "ExactAudioCopy v1.0b2"
PERFORMER "Andrea Centazzo, Roberto Ottaviano"
TITLE "In A Rainy Day"
FILE "Andrea Centazzo, Roberto Ottaviano - In A Rainy Day.flac" WAVE
TRACK 01 AUDIO
TITLE "Mystery Man"
PERFORMER "Andrea Centazzo, Roberto Ottaviano"
ISRC 000000000000
INDEX 01 00:00:00
TRACK 02 AUDIO
TITLE "In A Balinese Garden #1 "
PERFORMER "Andrea Centazzo, Roberto Ottaviano"
ISRC 000000000000
INDEX 01 08:42:51
TRACK 03 AUDIO
TITLE "A Kind Of Duke's Blue "
PERFORMER "Andrea Centazzo, Roberto Ottaviano"
ISRC 000000000000
INDEX 01 15:50:58
TRACK 04 AUDIO
TITLE "Saty For Me "
PERFORMER "Andrea Centazzo, Roberto Ottaviano"
ISRC 000000000000
INDEX 01 21:28:10
TRACK 05 AUDIO
TITLE "Eulogy - For Paul Motian"
PERFORMER "Andrea Centazzo, Roberto Ottaviano"
ISRC 000000000000
INDEX 01 27:29:03
TRACK 06 AUDIO
TITLE "In A Balinese Garden #2 "
PERFORMER "Andrea Centazzo, Roberto Ottaviano"
ISRC 000000000000
INDEX 01 32:58:28
TRACK 07 AUDIO
TITLE "The Train You Never Take "
PERFORMER "Andrea Centazzo, Roberto Ottaviano"
ISRC 000000000000
INDEX 01 38:48:29
TRACK 08 AUDIO
TITLE "Pollock On The Beach - For Jackson Pollock"
PERFORMER "Andrea Centazzo, Roberto Ottaviano"
ISRC 000000000000
INDEX 01 45:19:51
TRACK 09 AUDIO
TITLE "Rituals "
PERFORMER "Andrea Centazzo, Roberto Ottaviano"
ISRC 000000000000
INDEX 01 50:04:71
TRACK 10 AUDIO
TITLE "It Gets Stormy"
PERFORMER "Andrea Centazzo, Roberto Ottaviano"
ISRC 000000000000
INDEX 01 56:05:05
Доп. информация: Recorded June 7th 2012 in Bologna, Italy
 
Об альбоме (сборнике)
Andrea Centazzo is what you can call a "pure" percussionist, a musician who creates percussive sounds, with whatever object or in whatever setting. What counts for him is the impact of the sound, and it sounds like drama, with lots of silences and sudden outbursts full of effect and reverb, as if all his music is created in large empty spaces like churches or caves or just a studio with the reverb switch on the maximum level.
His companion for "In A Rainy Day" is his fellow countryman Roberto Ottaviano on soprano, a fabulous lyricist and improviser. Both musicians started collaborating thirty-five years ago, with the saxophonist becoming a member of Centazzo's Mitteleuropa Orchestra, but their careers bifurcated in the late eighties.
All pieces are improvised during a one-day session, with themes sometimes borrowed from elsewhere, as with Satie"s beautiful "Gnossienne # 1" or from Ellington, yet never as a premeditated tune. The whole album wallows in the same sad and lonely mood, somewhat sentimental at moments, sometimes reminiscent of John Surman, a mixture of ECM spaciness and free improvisation, but always beautiful.
The only track that breaks the cohesion of the album is "A Kind Of Duke's Blue", a nice boppish piece, which suddenly sounds as if both musicians are playing in your living room. Although pleasant by itself, the overall cohesiveness of the album could have benefited from its absence.
In all, a nice album with great interplay between two excellent musicians, yet not essential.
 
Состав
Percussion, Percussion [Kat Mallet], Keyboards, Sampler [Sampling] – Andrea Centazzo
Soprano Saxophone – Roberto Ottaviano
По всем вопросам пишите личное сообщение пользователю M0p94ok.
14:33
172
Нет комментариев. Ваш будет первым!