Вы используете незарегистрированную версию компонента "Вкладки"!

Поиск

(Free Jazz, Contemporary Jazz, Hat Hut Records) Ran Blake - Something to Live For - 1999, FLAC (tracks+.cue), lossless

(Free Jazz, Contemporary Jazz, Hat Hut Records) Ran Blake - Something to Live For - 1999, FLAC (tracks+.cue), lossless
Треклист:
Ran Blake / Something to Live For
Жанр: Free Jazz, Contemporary Jazz, Hat Hut Records
Страна-производитель диска: Switzerland
Год издания: 1999
Издатель (лейбл): Hat Hut Records
Номер по каталогу: hatOLOGY 527
Аудиокодек: FLAC (*.flac)
Тип рипа: tracks+.cue
Битрейт аудио: lossless
Продолжительность: 51:36
Источник (релизер): Max Monteiro
Наличие сканов в содержимом раздачи: нет
Треклист:
01. Elijah Rock 1 (traditional, arr. by J. Hairston) 1:50
02. Something to Live For (Duke Ellington / Billy Strayhorn) 3:36
03. Get Out of Town (Cole Porter) 4:39
04. Enigma Suite: Part 1 (Guillermo Gregorio / Ran Blake) 1:12
05. Memphis (dedicated to Mr. Jean Plumez) (Ran Blake) 6:00
06. Vilna (A. Olshanetsky / L. Wolfson) 3:24
07. Enigma Suite: Part 2 (Guillermo Gregorio / Ran Blake) 1:16
08. Mood Indigo (Duke Ellington / Barney Bigard / Irving Mills) 2:25
09. Eclipse (Charles Mingus) 3:04
10. Elijah Rock 2 (traditional, arr. by J. Hairston) 1:20
11. Enigma Suite: Part 3 (Guillermo Gregorio / Ran Blake) 1:50
12. Judy (Al Green) 5:18
13. A Night in Tunisia (Dizzy Gillespie / Frank Paparelli) 2:29
14. Enigma Suite: Part 4 (Guillermo Gregorio / Ran Blake) 0:46
15. Nightcrawler (David « Knife » Fabris) 2:23
16. Throw It Away (Abbey Lincoln) 3:06
17. Impresario of Death (Ran Blake) 3:45
18. Doktor Mabuse (Konrad Elfers) 2:32
19. Ghosts of Cimetière du Père-Lachaise (Ran Blake) 0:41
Recorded at WGBH Studio, Boston on March 20, 1998.
Ran Blake – Piano
David « Knife » Fabris – Guitar on 2, 6, 12, 15, 18
Guillermo Gregorio – Clarinet on 4, 7, 11, 14, 17
 
Лог создания рипа
Exact Audio Copy V1.0 beta 3 from 29. August 2011
EAC extraction logfile from 4. June 2013, 19:18
Ran Blake / Something to Live For
Used drive : SlimtypeeNAU508 5 Adapter: 1 ID: 0
Read mode : Secure
Utilize accurate stream : Yes
Defeat audio cache : Yes
Make use of C2 pointers : No
Read offset correction : 6
Overread into Lead-In and Lead-Out : No
Fill up missing offset samples with silence : Yes
Delete leading and trailing silent blocks : No
Null samples used in CRC calculations : Yes
Used interface : Native Win32 interface for Win NT & 2000
Gap handling : Appended to previous track
Used output format : User Defined Encoder
Selected bitrate : 768 kBit/s
Quality : High
Add ID3 tag : No
Command line compressor : C:\Program Files (x86)\Exact Audio Copy\Flac\flac.exe
Additional command line options : -8 -V -T "ARTIST=%artist%" -T "TITLE=%title%" -T "ALBUM=%albumtitle%" -T "DATE=%year%" -T "TRACKNUMBER=%tracknr%" -T "GENRE=%genre%" -T "PERFORMER=%albuminterpret%" -T "COMPOSER=%composer%" %haslyrics%--tag-from-file=LYRICS="%lyricsfile%"%haslyrics% -T "ALBUMARTIST=%albumartist%" -T "DISCNUMBER=%cdnumber%" -T "TOTALDISCS=%totalcds%" -T "TOTALTRACKS=%numtracks%" -T "COMMENT=%comment%" %source% -o %dest%
TOC of the extracted CD
Track | Start | Length | Start sector | End sector
---------------------------------------------------------
1 | 0:00.00 | 1:49.62 | 0 | 8236
2 | 1:49.62 | 3:36.00 | 8237 | 24436
3 | 5:25.62 | 4:39.00 | 24437 | 45361
4 | 10:04.62 | 1:12.00 | 45362 | 50761
5 | 11:16.62 | 6:00.00 | 50762 | 77761
6 | 17:16.62 | 3:24.00 | 77762 | 93061
7 | 20:40.62 | 1:16.00 | 93062 | 98761
8 | 21:56.62 | 2:25.00 | 98762 | 109636
9 | 24:21.62 | 3:04.00 | 109637 | 123436
10 | 27:25.62 | 1:20.00 | 123437 | 129436
11 | 28:45.62 | 1:50.00 | 129437 | 137686
12 | 30:35.62 | 5:18.00 | 137687 | 161536
13 | 35:53.62 | 2:29.00 | 161537 | 172711
14 | 38:22.62 | 0:46.00 | 172712 | 176161
15 | 39:08.62 | 2:23.00 | 176162 | 186886
16 | 41:31.62 | 3:06.00 | 186887 | 200836
17 | 44:37.62 | 3:45.00 | 200837 | 217711
18 | 48:22.62 | 2:32.00 | 217712 | 229111
19 | 50:54.62 | 0:41.13 | 229112 | 232199
Track 1
Filename C:\EAC rips\01 - Elijah Rock 1.wav
Pre-gap length 0:00:02.00
Peak level 70.1 %
Extraction speed 1.8 X
Track quality 100.0 %
Test CRC 7E9296B0
Copy CRC 7E9296B0
Accurately ripped (confidence 3) [83421F4A] (AR v1)
Copy OK
Track 2
Filename C:\EAC rips\02 - Something to Live For.wav
Peak level 70.5 %
Extraction speed 2.2 X
Track quality 100.0 %
Test CRC 4288348B
Copy CRC 4288348B
Accurately ripped (confidence 3) [C6BBA42C] (AR v1)
Copy OK
Track 3
Filename C:\EAC rips\03 - Get Out of Town.wav
Peak level 90.5 %
Extraction speed 2.5 X
Track quality 100.0 %
Test CRC D81799BC
Copy CRC D81799BC
Accurately ripped (confidence 3) [72FDDDF8] (AR v1)
Copy OK
Track 4
Filename C:\EAC rips\04 - Enigma Suite - Part 1.wav
Peak level 75.4 %
Extraction speed 1.9 X
Track quality 100.0 %
Test CRC A3DB26E6
Copy CRC A3DB26E6
Accurately ripped (confidence 3) [BFFA03BF] (AR v1)
Copy OK
Track 5
Filename C:\EAC rips\05 - Memphis.wav
Peak level 90.9 %
Extraction speed 2.9 X
Track quality 100.0 %
Test CRC 237F5A1E
Copy CRC 237F5A1E
Accurately ripped (confidence 3) [9432E3FF] (AR v1)
Copy OK
Track 6
Filename C:\EAC rips\06 - Vilna.wav
Peak level 85.2 %
Extraction speed 2.9 X
Track quality 100.0 %
Test CRC 086B6301
Copy CRC 086B6301
Accurately ripped (confidence 3) [BF560AF6] (AR v1)
Copy OK
Track 7
Filename C:\EAC rips\07 - Enigma Suite - Part 2.wav
Peak level 81.6 %
Extraction speed 1.5 X
Track quality 99.8 %
Test CRC 010D3504
Copy CRC 010D3504
Accurately ripped (confidence 3) [76DA0CE5] (AR v1)
Copy OK
Track 8
Filename C:\EAC rips\08 - Mood Indigo.wav
Peak level 79.6 %
Extraction speed 2.8 X
Track quality 100.0 %
Test CRC 97DA5C57
Copy CRC 97DA5C57
Accurately ripped (confidence 3) [CBB9F965] (AR v1)
Copy OK
Track 9
Filename C:\EAC rips\09 - Eclipse.wav
Peak level 86.1 %
Extraction speed 3.1 X
Track quality 100.0 %
Test CRC D6233775
Copy CRC D6233775
Accurately ripped (confidence 3) [9EAD306F] (AR v1)
Copy OK
Track 10
Filename C:\EAC rips\10 - Elijah Rock 2.wav
Peak level 77.7 %
Extraction speed 1.7 X
Track quality 99.8 %
Test CRC BF93E238
Copy CRC BF93E238
Accurately ripped (confidence 3) [70074399] (AR v1)
Copy OK
Track 11
Filename C:\EAC rips\11 - Enigma Suite - Part 3.wav
Peak level 31.3 %
Extraction speed 2.9 X
Track quality 100.0 %
Test CRC E3DDE8ED
Copy CRC E3DDE8ED
Accurately ripped (confidence 3) [199932C5] (AR v1)
Copy OK
Track 12
Filename C:\EAC rips\12 - Judy.wav
Peak level 91.0 %
Extraction speed 3.6 X
Track quality 100.0 %
Test CRC DAD5E7C8
Copy CRC DAD5E7C8
Accurately ripped (confidence 3) [E685B16D] (AR v1)
Copy OK
Track 13
Filename C:\EAC rips\13 - A Night in Tunisia.wav
Peak level 79.4 %
Extraction speed 3.3 X
Track quality 100.0 %
Test CRC 88BCF783
Copy CRC 88BCF783
Accurately ripped (confidence 3) [D03A88B5] (AR v1)
Copy OK
Track 14
Filename C:\EAC rips\14 - Enigma Suite - Part 4.wav
Peak level 77.6 %
Extraction speed 2.3 X
Track quality 100.0 %
Test CRC A173BBC7
Copy CRC A173BBC7
Accurately ripped (confidence 3) [87390B53] (AR v1)
Copy OK
Track 15
Filename C:\EAC rips\15 - Nightcrawler.wav
Pre-gap length 0:00:00.01
Peak level 90.9 %
Extraction speed 3.4 X
Track quality 100.0 %
Test CRC 23A69DBF
Copy CRC 23A69DBF
Accurately ripped (confidence 3) [DF298404] (AR v1)
Copy OK
Track 16
Filename C:\EAC rips\16 - Throw It Away.wav
Peak level 90.5 %
Extraction speed 3.7 X
Track quality 100.0 %
Test CRC CA8326DF
Copy CRC CA8326DF
Accurately ripped (confidence 3) [C1D93E9F] (AR v1)
Copy OK
Track 17
Filename C:\EAC rips\17 - Impresario of Death.wav
Peak level 81.1 %
Extraction speed 3.9 X
Track quality 100.0 %
Test CRC E982A0EB
Copy CRC E982A0EB
Accurately ripped (confidence 3) [E072941C] (AR v1)
Copy OK
Track 18
Filename C:\EAC rips\18 - Doktor Mabuse.wav
Peak level 91.2 %
Extraction speed 3.7 X
Track quality 100.0 %
Test CRC 3B420018
Copy CRC 3B420018
Accurately ripped (confidence 3) [E88AAE40] (AR v1)
Copy OK
Track 19
Filename C:\EAC rips\19 - Ghosts of Cimetière du Père-Lachaise.wav
Peak level 57.5 %
Extraction speed 1.3 X
Track quality 99.7 %
Test CRC 6B77D2A8
Copy CRC 6B77D2A8
Accurately ripped (confidence 3) [58492912] (AR v1)
Copy OK
All tracks accurately ripped
No errors occurred
End of status report
---- CUETools DB Plugin V2.1.4
[CTDB TOCID: ._lVjpr1kV2Y.DRD2zjiHKSEKEQ-] found
Submit result: ._lVjpr1kV2Y.DRD2zjiHKSEKEQ- has been confirmed
Track | CTDB Status
1 | (2/2) Accurately ripped
2 | (2/2) Accurately ripped
3 | (2/2) Accurately ripped
4 | (2/2) Accurately ripped
5 | (2/2) Accurately ripped
6 | (2/2) Accurately ripped
7 | (2/2) Accurately ripped
8 | (2/2) Accurately ripped
9 | (2/2) Accurately ripped
10 | (2/2) Accurately ripped
11 | (2/2) Accurately ripped
12 | (2/2) Accurately ripped
13 | (2/2) Accurately ripped
14 | (2/2) Accurately ripped
15 | (2/2) Accurately ripped
16 | (2/2) Accurately ripped
17 | (2/2) Accurately ripped
18 | (2/2) Accurately ripped
19 | (2/2) Accurately ripped
==== Log checksum 99056CBB12DE80B455865806F480A27004C91C3745F219D225C96CE73E66E9E9 ====
 
Содержание индексной карты (.CUE)
REM DATE 1999
REM DISCID 000C1813
REM COMMENT "ExactAudioCopy v1.0b3"
PERFORMER "Ran Blake"
TITLE "Something to Live For"
FILE "01 - Elijah Rock 1.wav" WAVE
TRACK 01 AUDIO
TITLE "Elijah Rock 1"
PERFORMER "Ran Blake"
ISRC CH1319800024
INDEX 01 00:00:00
FILE "02 - Something to Live For.wav" WAVE
TRACK 02 AUDIO
TITLE "Something to Live For"
PERFORMER "Ran Blake"
ISRC CH1319800025
INDEX 01 00:00:00
FILE "03 - Get Out of Town.wav" WAVE
TRACK 03 AUDIO
TITLE "Get Out of Town"
PERFORMER "Ran Blake"
ISRC CH1319800026
INDEX 01 00:00:00
FILE "04 - Enigma Suite - Part 1.wav" WAVE
TRACK 04 AUDIO
TITLE "Enigma Suite: Part 1"
PERFORMER "Ran Blake"
ISRC CH1319800027
INDEX 01 00:00:00
FILE "05 - Memphis.wav" WAVE
TRACK 05 AUDIO
TITLE "Memphis"
PERFORMER "Ran Blake"
ISRC CH1319800028
INDEX 01 00:00:00
FILE "06 - Vilna.wav" WAVE
TRACK 06 AUDIO
TITLE "Vilna"
PERFORMER "Ran Blake"
ISRC CH1319800029
INDEX 01 00:00:00
FILE "07 - Enigma Suite - Part 2.wav" WAVE
TRACK 07 AUDIO
TITLE "Enigma Suite: Part 2"
PERFORMER "Ran Blake"
ISRC CH1319800030
INDEX 01 00:00:00
FILE "08 - Mood Indigo.wav" WAVE
TRACK 08 AUDIO
TITLE "Mood Indigo"
PERFORMER "Ran Blake"
ISRC CH1319800031
INDEX 01 00:00:00
FILE "09 - Eclipse.wav" WAVE
TRACK 09 AUDIO
TITLE "Eclipse"
PERFORMER "Ran Blake"
ISRC CH1319800032
INDEX 01 00:00:00
FILE "10 - Elijah Rock 2.wav" WAVE
TRACK 10 AUDIO
TITLE "Elijah Rock 2"
PERFORMER "Ran Blake"
ISRC CH1319800033
INDEX 01 00:00:00
FILE "11 - Enigma Suite - Part 3.wav" WAVE
TRACK 11 AUDIO
TITLE "Enigma Suite: Part 3"
PERFORMER "Ran Blake"
ISRC CH1319800034
INDEX 01 00:00:00
FILE "12 - Judy.wav" WAVE
TRACK 12 AUDIO
TITLE "Judy"
PERFORMER "Ran Blake"
ISRC CH1319800035
INDEX 01 00:00:00
FILE "13 - A Night in Tunisia.wav" WAVE
TRACK 13 AUDIO
TITLE "A Night in Tunisia"
PERFORMER "Ran Blake"
ISRC CH1319800036
INDEX 01 00:00:00
FILE "14 - Enigma Suite - Part 4.wav" WAVE
TRACK 14 AUDIO
TITLE "Enigma Suite: Part 4"
PERFORMER "Ran Blake"
ISRC CH1319800037
INDEX 01 00:00:00
TRACK 15 AUDIO
TITLE "Nightcrawler"
PERFORMER "Ran Blake"
ISRC CH1319800038
INDEX 00 00:45:74
FILE "15 - Nightcrawler.wav" WAVE
INDEX 01 00:00:00
FILE "16 - Throw It Away.wav" WAVE
TRACK 16 AUDIO
TITLE "Throw It Away"
PERFORMER "Ran Blake"
ISRC CH1319800039
INDEX 01 00:00:00
FILE "17 - Impresario of Death.wav" WAVE
TRACK 17 AUDIO
TITLE "Impresario of Death"
PERFORMER "Ran Blake"
ISRC CH1319800040
INDEX 01 00:00:00
FILE "18 - Doktor Mabuse.wav" WAVE
TRACK 18 AUDIO
TITLE "Doktor Mabuse"
PERFORMER "Ran Blake"
ISRC CH1319800041
INDEX 01 00:00:00
FILE "19 - Ghosts of Cimetière du Père-Lachaise.wav" WAVE
TRACK 19 AUDIO
TITLE "Ghosts of Cimetière du Père-Lachaise"
PERFORMER "Ran Blake"
ISRC CH1319800042
INDEX 01 00:00:00
Any questions -> support@pro-jazz.com. По всем вопросам пишите -> support@pro-jazz.com
14:32
157
Нет комментариев. Ваш будет первым!