Вы используете незарегистрированную версию компонента "Вкладки"!

Поиск

(Avant-Garde, Contemporary Jazz, Jewish, Tzadik) Frank London - Invocations - 2000, FLAC (tracks+.cue), lossless

(Avant-Garde, Contemporary Jazz, Jewish, Tzadik) Frank London - Invocations - 2000, FLAC (tracks+.cue), lossless
Треклист:
Frank London / Invocations
Жанр: Avant-Garde, Contemporary Jazz, Jewish, Tzadik
Страна-производитель диска: U.S.A.
Год издания: 2000
Издатель (лейбл): Tzadik
Номер по каталогу: TZ 7147
Аудиокодек: FLAC (*.flac)
Тип рипа: tracks+.cue
Битрейт аудио: lossless
Продолжительность: 55:12
Источник (релизер): Max Monteiro
Наличие сканов в содержимом раздачи: нет
Треклист:
1. Hod: T’kias Shofar 3:43
2. Keter: Avinu Malkenu 10:09
3. Tifiret: Refoeinu 4:53
4. Hokhma: Tzaddik Rabbi Elozar (From Kinos) 6:20
5. Malkhut: Rebeynu Shel Oylem 10:15
6. Bina: Av Horachamim 6:24
7. Gedula: Ezkeroh Elokim 5:18
8. Gevura: Ono Hashim / Refoeinu 8:11
All compositions / arrangements traditional by Frank London.
Material selected from the repertoires of Berele Chagy, Ben Zion Kapov-Kagan, Alter Yechiol Karniol, Yossele Rosenblatt, Gershon Sirota and others.
 
Лог создания рипа
Exact Audio Copy V1.0 beta 3 from 29. August 2011
EAC extraction logfile from 9. April 2013, 15:31
Frank London / Invocations
Used drive : SlimtypeeNAU508 5 Adapter: 1 ID: 0
Read mode : Secure
Utilize accurate stream : Yes
Defeat audio cache : Yes
Make use of C2 pointers : No
Read offset correction : 6
Overread into Lead-In and Lead-Out : No
Fill up missing offset samples with silence : Yes
Delete leading and trailing silent blocks : No
Null samples used in CRC calculations : Yes
Used interface : Native Win32 interface for Win NT & 2000
Gap handling : Appended to previous track
Used output format : User Defined Encoder
Selected bitrate : 768 kBit/s
Quality : High
Add ID3 tag : No
Command line compressor : C:\Program Files (x86)\Exact Audio Copy\Flac\flac.exe
Additional command line options : -8 -V -T "ARTIST=%artist%" -T "TITLE=%title%" -T "ALBUM=%albumtitle%" -T "DATE=%year%" -T "TRACKNUMBER=%tracknr%" -T "GENRE=%genre%" -T "PERFORMER=%albuminterpret%" -T "COMPOSER=%composer%" %haslyrics%--tag-from-file=LYRICS="%lyricsfile%"%haslyrics% -T "ALBUMARTIST=%albumartist%" -T "DISCNUMBER=%cdnumber%" -T "TOTALDISCS=%totalcds%" -T "TOTALTRACKS=%numtracks%" -T "COMMENT=%comment%" %source% -o %dest%
TOC of the extracted CD
Track | Start | Length | Start sector | End sector
---------------------------------------------------------
1 | 0:00.00 | 3:43.12 | 0 | 16736
2 | 3:43.12 | 10:08.70 | 16737 | 62406
3 | 13:52.07 | 4:53.10 | 62407 | 84391
4 | 18:45.17 | 6:19.70 | 84392 | 112886
5 | 25:05.12 | 10:14.43 | 112887 | 158979
6 | 35:19.55 | 6:23.67 | 158980 | 187771
7 | 41:43.47 | 5:17.38 | 187772 | 211584
8 | 47:01.10 | 8:11.02 | 211585 | 248411
Track 1
Filename C:\EAC rips\01 - Hod - T'kias Shofar.wav
Pre-gap length 0:00:02.00
Peak level 77.3 %
Extraction speed 2.0 X
Track quality 100.0 %
Test CRC 828A67F1
Copy CRC 828A67F1
Accurately ripped (confidence 1) [68265656] (AR v2)
Copy OK
Track 2
Filename C:\EAC rips\02 - Keter - Avinu Malkenu.wav
Peak level 93.9 %
Extraction speed 2.7 X
Track quality 100.0 %
Test CRC 313D4E4D
Copy CRC 313D4E4D
Accurately ripped (confidence 1) [1F1C2C33] (AR v2)
Copy OK
Track 3
Filename C:\EAC rips\03 - Tifiret - Refoeinu.wav
Peak level 93.5 %
Extraction speed 2.4 X
Track quality 99.9 %
Test CRC 1F97B566
Copy CRC 1F97B566
Accurately ripped (confidence 1) [6E24699E] (AR v2)
Copy OK
Track 4
Filename C:\EAC rips\04 - Hokhma - Tzaddik Rabbi Elozar (From Kinos).wav
Peak level 79.3 %
Extraction speed 3.2 X
Track quality 100.0 %
Test CRC F218E8CD
Copy CRC F218E8CD
Accurately ripped (confidence 1) [7B3A491C] (AR v2)
Copy OK
Track 5
Filename C:\EAC rips\05 - Malkhut - Rebeynu Shel Oylem.wav
Peak level 84.2 %
Extraction speed 3.7 X
Track quality 100.0 %
Test CRC 4D0A3258
Copy CRC 4D0A3258
Accurately ripped (confidence 1) [48B3A976] (AR v2)
Copy OK
Track 6
Filename C:\EAC rips\06 - Bina - Av Horachamim.wav
Peak level 79.8 %
Extraction speed 3.9 X
Track quality 100.0 %
Test CRC 7CC1C376
Copy CRC 7CC1C376
Accurately ripped (confidence 1) [BC2C0027] (AR v2)
Copy OK
Track 7
Filename C:\EAC rips\07 - Gedula - Ezkeroh Elokim.wav
Peak level 79.2 %
Extraction speed 4.0 X
Track quality 100.0 %
Test CRC 642656DB
Copy CRC 642656DB
Accurately ripped (confidence 1) [05BC5E64] (AR v2)
Copy OK
Track 8
Filename C:\EAC rips\08 - Gevura - Ono Hashim - Refoeinu.wav
Peak level 92.0 %
Extraction speed 3.8 X
Track quality 99.9 %
Test CRC 50EEEE1D
Copy CRC 50EEEE1D
Accurately ripped (confidence 1) [08632017] (AR v2)
Copy OK
All tracks accurately ripped
No errors occurred
End of status report
---- CUETools DB Plugin V2.1.4
[CTDB TOCID: 5smYRX480TVSRzZC0jwU6v9_rJk-] disk not present in database
Submit result: 5smYRX480TVSRzZC0jwU6v9_rJk- has been uploaded
==== Log checksum 21C74E0975FD8F4F101BF1DA738501B30D3E7FAD09D19A97F7FFDC381401683A ====
 
Содержание индексной карты (.CUE)
REM GENRE Jazz
REM DATE 2000
REM DISCID 530CF008
REM COMMENT "ExactAudioCopy v1.0b3"
PERFORMER "Frank London"
TITLE "Invocations"
FILE "01 - Hod - T'kias Shofar.wav" WAVE
TRACK 01 AUDIO
TITLE "Hod: T'kias Shofar"
PERFORMER "Frank London"
INDEX 01 00:00:00
FILE "02 - Keter - Avinu Malkenu.wav" WAVE
TRACK 02 AUDIO
TITLE "Keter: Avinu Malkenu"
PERFORMER "Frank London"
INDEX 01 00:00:00
FILE "03 - Tifiret - Refoeinu.wav" WAVE
TRACK 03 AUDIO
TITLE "Tifiret: Refoeinu"
PERFORMER "Frank London"
INDEX 01 00:00:00
FILE "04 - Hokhma - Tzaddik Rabbi Elozar (From Kinos).wav" WAVE
TRACK 04 AUDIO
TITLE "Hokhma: Tzaddik Rabbi Elozar (From Kinos)"
PERFORMER "Frank London"
INDEX 01 00:00:00
FILE "05 - Malkhut - Rebeynu Shel Oylem.wav" WAVE
TRACK 05 AUDIO
TITLE "Malkhut: Rebeynu Shel Oylem"
PERFORMER "Frank London"
INDEX 01 00:00:00
FILE "06 - Bina - Av Horachamim.wav" WAVE
TRACK 06 AUDIO
TITLE "Bina: Av Horachamim"
PERFORMER "Frank London"
INDEX 01 00:00:00
FILE "07 - Gedula - Ezkeroh Elokim.wav" WAVE
TRACK 07 AUDIO
TITLE "Gedula: Ezkeroh Elokim"
PERFORMER "Frank London"
INDEX 01 00:00:00
FILE "08 - Gevura - Ono Hashim - Refoeinu.wav" WAVE
TRACK 08 AUDIO
TITLE "Gevura: Ono Hashim / Refoeinu"
PERFORMER "Frank London"
INDEX 01 00:00:00
Доп. информация: Recorded live June 26, 2000 at the Community Synagogue, East Sixth Street, NYC.
Dedicated to Lester Bowie.
 
Состав
Frank London – Trumpet, Piccolo Trumpet (track 4)
Anthony Coleman – Foot-Pump Harmonium (tracks 2, 5, 7)
Myra Melford – Foot- and Hand-Pump Harmonium (tracks 2, 3, 8)
Ken Filiano – Bass (tracks 3, 8)
Gina Leishman – Glass Harmonica (tracks 4, 6)
Any questions -> support@pro-jazz.com. По всем вопросам пишите -> support@pro-jazz.com
10:47
182
Нет комментариев. Ваш будет первым!