Вы используете незарегистрированную версию компонента "Вкладки"!

Поиск

(Contemporary Jazz, Avant-Garde, Soundtrack, Tzadik) John Zorn - Filmworks III: 1990-1995 - 1997 (1995), FLAC (tracks+.cue), lossless

(Contemporary Jazz, Avant-Garde, Soundtrack, Tzadik) John Zorn - Filmworks III: 1990-1995 - 1997 (1995), FLAC (tracks+.cue), lossless
Треклист:
John Zorn / Filmworks III: 1990-1995
Жанр: Contemporary Jazz, Avant-Garde, Soundtrack, Tzadik
Страна-производитель диска: U.S.A.
Год издания: 1997 (1995)
Издатель (лейбл): Tzadik
Номер по каталогу: TZ 7309
Аудиокодек: FLAC (*.flac)
Тип рипа: tracks+.cue
Битрейт аудио: lossless
Продолжительность: 1:00:28
Источник (релизер): Max Monteiro
Наличие сканов в содержимом раздачи: нет
Треклист:
Thieves Quartet (1993) (directed by Joe Chappelle)
01. Main Title 0:59
02. The Caper 0:57
03. Cadence 0:15
04. Kidnapping 2:15
05. Doubt 0:19
06. Nocturne 0:26
07. Nocturne 2 0:56
08. Bag Man 2:00
09. The Cop 0:27
10. Nocturne 3 0:55
11. Juke Box 2:44
12. End Titles 4:28
Music for Tsunta (1988) (directed by Kiriko Kubo)
13. Music for Tsunta (nine cues) 3:31
Hollywood Hotel (1994) (directed by Mei-Juin Chen)
14. Main Titles 1:36
15. Washing Machine a 0:26
16. Washing Machine b 0:39
17. Night Hotel 1:17
18. Japanese Tourists 1:54
19. Night Hotel 2 1:18
20. Objects 3:16
21. Night Hotel 3 1:00
22. Rooftop Death Rattle 0:59
23. Taiwan 3:48
24. End Titles 1:50
Music for Weiden and Kennedy (1990-1995)
25. Holland 0:16
26. Canada 0:31
27. France 0:16
28. Germany 0:33
29. Sweden 0:29
30. USA 0:28
31. Canada 2 0:15
32. Sweden 2 0:15
33. Italy 0:14
34. Great Lobby 0:33
35. Wheelchair Races 0:42
36. Logo 0:14
37. Secret Code 0:34
38. Secret Code 2 1:04
39. Don’t Break 0:40
40. Don’t Break 2 1:09
41. Footnotes 0:36
42. Footnotes 2 1:10
43. Retraction 0:41
44. Retraction 2 1:15
45. Protest 0:39
46. Protest 2 1:13
47. Launch 0:43
48. Launch 2 1:14
49. Elevator 0:40
50. Elevator 2 1:08
51. Fiance 0:39
52. Fiance 2 1:14
53. Around the World 1:06
54. Batman 0:32
55. Abstract Woman 0:35
56. Mystic Woman 0:33
All music composed and arranged by John Zorn.
 
Лог создания рипа
Exact Audio Copy V1.0 beta 3 from 29. August 2011
EAC extraction logfile from 8. April 2013, 23:36
John Zorn / Filmworks III: 1990-1995
Used drive : SlimtypeeNAU508 5 Adapter: 1 ID: 0
Read mode : Secure
Utilize accurate stream : Yes
Defeat audio cache : Yes
Make use of C2 pointers : No
Read offset correction : 6
Overread into Lead-In and Lead-Out : No
Fill up missing offset samples with silence : Yes
Delete leading and trailing silent blocks : No
Null samples used in CRC calculations : Yes
Used interface : Native Win32 interface for Win NT & 2000
Gap handling : Appended to previous track
Used output format : User Defined Encoder
Selected bitrate : 768 kBit/s
Quality : High
Add ID3 tag : No
Command line compressor : C:\Program Files (x86)\Exact Audio Copy\Flac\flac.exe
Additional command line options : -8 -V -T "ARTIST=%artist%" -T "TITLE=%title%" -T "ALBUM=%albumtitle%" -T "DATE=%year%" -T "TRACKNUMBER=%tracknr%" -T "GENRE=%genre%" -T "PERFORMER=%albuminterpret%" -T "COMPOSER=%composer%" %haslyrics%--tag-from-file=LYRICS="%lyricsfile%"%haslyrics% -T "ALBUMARTIST=%albumartist%" -T "DISCNUMBER=%cdnumber%" -T "TOTALDISCS=%totalcds%" -T "TOTALTRACKS=%numtracks%" -T "COMMENT=%comment%" %source% -o %dest%
TOC of the extracted CD
Track | Start | Length | Start sector | End sector
---------------------------------------------------------
1 | 0:00.00 | 0:59.25 | 0 | 4449
2 | 0:59.25 | 0:56.60 | 4450 | 8709
3 | 1:56.10 | 0:15.37 | 8710 | 9871
4 | 2:11.47 | 2:14.55 | 9872 | 19976
5 | 4:26.27 | 0:18.73 | 19977 | 21399
6 | 4:45.25 | 0:26.22 | 21400 | 23371
7 | 5:11.47 | 0:55.45 | 23372 | 27541
8 | 6:07.17 | 1:59.70 | 27542 | 36536
9 | 8:07.12 | 0:27.35 | 36537 | 38596
10 | 8:34.47 | 0:54.55 | 38597 | 42701
11 | 9:29.27 | 2:44.13 | 42702 | 55014
12 | 12:13.40 | 4:27.50 | 55015 | 75089
13 | 16:41.15 | 3:30.67 | 75090 | 90906
14 | 20:12.07 | 1:36.13 | 90907 | 98119
15 | 21:48.20 | 0:26.15 | 98120 | 100084
16 | 22:14.35 | 0:38.65 | 100085 | 102999
17 | 22:53.25 | 1:17.22 | 103000 | 108796
18 | 24:10.47 | 1:53.45 | 108797 | 117316
19 | 26:04.17 | 1:18.15 | 117317 | 123181
20 | 27:22.32 | 3:16.33 | 123182 | 137914
21 | 30:38.65 | 1:00.27 | 137915 | 142441
22 | 31:39.17 | 0:59.20 | 142442 | 146886
23 | 32:38.37 | 3:48.18 | 146887 | 164004
24 | 36:26.55 | 1:49.47 | 164005 | 172226
25 | 38:16.27 | 0:16.10 | 172227 | 173436
26 | 38:32.37 | 0:31.35 | 173437 | 175796
27 | 39:03.72 | 0:16.05 | 175797 | 177001
28 | 39:20.02 | 0:33.13 | 177002 | 179489
29 | 39:53.15 | 0:28.65 | 179490 | 181654
30 | 40:22.05 | 0:28.29 | 181655 | 183783
31 | 40:50.34 | 0:15.36 | 183784 | 184944
32 | 41:05.70 | 0:15.07 | 184945 | 186076
33 | 41:21.02 | 0:13.63 | 186077 | 187114
34 | 41:34.65 | 0:33.12 | 187115 | 189601
35 | 42:08.02 | 0:42.25 | 189602 | 192776
36 | 42:50.27 | 0:14.30 | 192777 | 193856
37 | 43:04.57 | 0:34.10 | 193857 | 196416
38 | 43:38.67 | 1:04.03 | 196417 | 201219
39 | 44:42.70 | 0:40.25 | 201220 | 204244
40 | 45:23.20 | 1:08.60 | 204245 | 209404
41 | 46:32.05 | 0:35.52 | 209405 | 212081
42 | 47:07.57 | 1:09.63 | 212082 | 217319
43 | 48:17.45 | 0:41.32 | 217320 | 220426
44 | 48:59.02 | 1:14.65 | 220427 | 226041
45 | 50:13.67 | 0:39.00 | 226042 | 228966
46 | 50:52.67 | 1:12.50 | 228967 | 234416
47 | 52:05.42 | 0:42.43 | 234417 | 237609
48 | 52:48.10 | 1:13.50 | 237610 | 243134
49 | 54:01.60 | 0:39.60 | 243135 | 246119
50 | 54:41.45 | 1:08.32 | 246120 | 251251
51 | 55:50.02 | 0:38.45 | 251252 | 254146
52 | 56:28.47 | 1:13.38 | 254147 | 259659
53 | 57:42.10 | 1:06.22 | 259660 | 264631
54 | 58:48.32 | 0:32.15 | 264632 | 267046
55 | 59:20.47 | 0:34.65 | 267047 | 269661
56 | 59:55.37 | 0:32.73 | 269662 | 272134
Track 1
Filename C:\EAC rips\01 - Main Title.wav
Pre-gap length 0:00:02.00
Peak level 95.9 %
Extraction speed 0.7 X
Track quality 100.0 %
Test CRC D9A2974E
Copy CRC D9A2974E
Cannot be verified as accurate (confidence 1) [34174583], AccurateRip returned [BAB1CD7B] (AR v2)
Copy OK
Track 2
Filename C:\EAC rips\02 - The Caper.wav
Peak level 95.7 %
Extraction speed 0.7 X
Track quality 100.0 %
Test CRC 727CEDF0
Copy CRC 727CEDF0
Cannot be verified as accurate (confidence 1) [6B09921C], AccurateRip returned [3A827136] (AR v2)
Copy OK
Track 3
Filename C:\EAC rips\03 - Cadence.wav
Peak level 51.9 %
Extraction speed 0.3 X
Track quality 100.0 %
Test CRC 355620FC
Copy CRC 355620FC
Cannot be verified as accurate (confidence 1) [2466BDBB], AccurateRip returned [D67302D8] (AR v2)
Copy OK
Track 4
Filename C:\EAC rips\04 - Kidnapping.wav
Peak level 98.7 %
Extraction speed 1.0 X
Track quality 100.0 %
Test CRC 94559CCE
Copy CRC 94559CCE
Cannot be verified as accurate (confidence 1) [C4D95D34], AccurateRip returned [752B587D] (AR v2)
Copy OK
Track 5
Filename C:\EAC rips\05 - Doubt.wav
Peak level 61.0 %
Extraction speed 0.4 X
Track quality 100.0 %
Test CRC 83260B30
Copy CRC 83260B30
Cannot be verified as accurate (confidence 1) [420B46D1], AccurateRip returned [D64AD582] (AR v2)
Copy OK
Track 6
Filename C:\EAC rips\06 - Nocturne.wav
Peak level 52.6 %
Extraction speed 0.5 X
Track quality 100.0 %
Test CRC D8503343
Copy CRC D8503343
Cannot be verified as accurate (confidence 1) [64512AED], AccurateRip returned [AAB32814] (AR v2)
Copy OK
Track 7
Filename C:\EAC rips\07 - Nocturne 2.wav
Peak level 95.9 %
Extraction speed 0.8 X
Track quality 100.0 %
Test CRC 7EF136D2
Copy CRC 7EF136D2
Cannot be verified as accurate (confidence 1) [17BF0638], AccurateRip returned [DEBE08F6] (AR v2)
Copy OK
Track 8
Filename C:\EAC rips\08 - Bag Man.wav
Peak level 98.2 %
Extraction speed 1.1 X
Track quality 100.0 %
Test CRC 632FC25C
Copy CRC 632FC25C
Cannot be verified as accurate (confidence 1) [CA8DBAC9], AccurateRip returned [29A5284A] (AR v2)
Copy OK
Track 9
Filename C:\EAC rips\09 - The Cop.wav
Peak level 51.6 %
Extraction speed 0.6 X
Track quality 100.0 %
Test CRC 543DF5AC
Copy CRC 543DF5AC
Cannot be verified as accurate (confidence 1) [D8E4AABC], AccurateRip returned [CF9258BB] (AR v2)
Copy OK
Track 10
Filename C:\EAC rips\10 - Nocturne 3.wav
Peak level 56.9 %
Extraction speed 0.6 X
Track quality 99.8 %
Test CRC CBFFD638
Copy CRC CBFFD638
Cannot be verified as accurate (confidence 1) [F4E4E7F2], AccurateRip returned [4D773FE6] (AR v2)
Copy OK
Track 11
Filename C:\EAC rips\11 - Juke Box.wav
Peak level 96.7 %
Extraction speed 1.3 X
Track quality 100.0 %
Test CRC 8F8749BA
Copy CRC 8F8749BA
Cannot be verified as accurate (confidence 1) [31A52321], AccurateRip returned [E1998046] (AR v2)
Copy OK
Track 12
Filename C:\EAC rips\12 - End Titles.wav
Peak level 56.0 %
Extraction speed 1.5 X
Track quality 100.0 %
Test CRC 49626E24
Copy CRC 49626E24
Cannot be verified as accurate (confidence 1) [76D60BE4], AccurateRip returned [1D001FB0] (AR v2)
Copy OK
Track 13
Filename C:\EAC rips\13 - Music for Tsunta (nine cues).wav
Peak level 96.1 %
Extraction speed 1.5 X
Track quality 100.0 %
Test CRC 2A289328
Copy CRC 2A289328
Cannot be verified as accurate (confidence 1) [8C24DD00], AccurateRip returned [9D9139B1] (AR v2)
Copy OK
Track 14
Filename C:\EAC rips\14 - Main Titles.wav
Peak level 73.2 %
Extraction speed 1.3 X
Track quality 100.0 %
Test CRC DCB19467
Copy CRC DCB19467
Cannot be verified as accurate (confidence 1) [4CFBD3E1], AccurateRip returned [37D172AE] (AR v2)
Copy OK
Track 15
Filename C:\EAC rips\15 - Washing Machine a.wav
Peak level 91.8 %
Extraction speed 0.4 X
Track quality 99.5 %
Test CRC 5322154B
Copy CRC 5322154B
Cannot be verified as accurate (confidence 1) [CF16574D], AccurateRip returned [5DD16761] (AR v2)
Copy OK
Track 16
Filename C:\EAC rips\16 - Washing Machine b.wav
Peak level 80.8 %
Extraction speed 0.6 X
Track quality 99.7 %
Test CRC 7B9F219B
Copy CRC 7B9F219B
Cannot be verified as accurate (confidence 1) [462F56CB], AccurateRip returned [02ADBE91] (AR v2)
Copy OK
Track 17
Filename C:\EAC rips\17 - Night Hotel.wav
Peak level 68.7 %
Extraction speed 1.3 X
Track quality 100.0 %
Test CRC 237658FC
Copy CRC 237658FC
Cannot be verified as accurate (confidence 1) [C55A0EF8], AccurateRip returned [E0C64F4E] (AR v2)
Copy OK
Track 18
Filename C:\EAC rips\18 - Japanese Tourists.wav
Peak level 97.2 %
Extraction speed 1.4 X
Track quality 100.0 %
Test CRC C14826E0
Copy CRC C14826E0
Cannot be verified as accurate (confidence 1) [D3C83DC1], AccurateRip returned [C5F33A5B] (AR v2)
Copy OK
Track 19
Filename C:\EAC rips\19 - Night Hotel 2.wav
Peak level 93.1 %
Extraction speed 1.3 X
Track quality 100.0 %
Test CRC BA98607D
Copy CRC BA98607D
Cannot be verified as accurate (confidence 1) [D645D72E], AccurateRip returned [A9D7A495] (AR v2)
Copy OK
Track 20
Filename C:\EAC rips\20 - Objects.wav
Peak level 98.8 %
Extraction speed 1.7 X
Track quality 100.0 %
Test CRC 52ED28B3
Copy CRC 52ED28B3
Cannot be verified as accurate (confidence 1) [9D0255DC], AccurateRip returned [177BC0FD] (AR v2)
Copy OK
Track 21
Filename C:\EAC rips\21 - Night Hotel 3.wav
Peak level 97.0 %
Extraction speed 0.9 X
Track quality 99.8 %
Test CRC F5B4EDF6
Copy CRC F5B4EDF6
Cannot be verified as accurate (confidence 1) [25B61E55], AccurateRip returned [A1396767] (AR v2)
Copy OK
Track 22
Filename C:\EAC rips\22 - Rooftop Death Rattle.wav
Peak level 97.3 %
Extraction speed 1.3 X
Track quality 100.0 %
Test CRC 8FBCB97B
Copy CRC 8FBCB97B
Cannot be verified as accurate (confidence 1) [F36C5C5C], AccurateRip returned [CE65E63F] (AR v2)
Copy OK
Track 23
Filename C:\EAC rips\23 - Taiwan.wav
Peak level 91.0 %
Extraction speed 1.8 X
Track quality 100.0 %
Test CRC DA5673AD
Copy CRC DA5673AD
Cannot be verified as accurate (confidence 1) [4C97C6E4], AccurateRip returned [3B7AD7CA] (AR v2)
Copy OK
Track 24
Filename C:\EAC rips\24 - End Titles.wav
Peak level 87.5 %
Extraction speed 1.6 X
Track quality 100.0 %
Test CRC A70D3614
Copy CRC A70D3614
Cannot be verified as accurate (confidence 1) [162F691A], AccurateRip returned [57D078B3] (AR v2)
Copy OK
Track 25
Filename C:\EAC rips\25 - Holland.wav
Peak level 80.0 %
Extraction speed 0.6 X
Track quality 100.0 %
Test CRC 998877E8
Copy CRC 998877E8
Cannot be verified as accurate (confidence 1) [C8DB3F61], AccurateRip returned [F1CB2636] (AR v2)
Copy OK
Track 26
Filename C:\EAC rips\26 - Canada.wav
Peak level 70.3 %
Extraction speed 1.0 X
Track quality 100.0 %
Test CRC 0E4D00E9
Copy CRC 0E4D00E9
Cannot be verified as accurate (confidence 1) [07158DEB], AccurateRip returned [7644855D] (AR v2)
Copy OK
Track 27
Filename C:\EAC rips\27 - France.wav
Peak level 97.8 %
Extraction speed 0.6 X
Track quality 100.0 %
Test CRC D1344417
Copy CRC D1344417
Cannot be verified as accurate (confidence 1) [625168FE], AccurateRip returned [8AE46BE8] (AR v2)
Copy OK
Track 28
Filename C:\EAC rips\28 - Germany.wav
Peak level 98.8 %
Extraction speed 0.7 X
Track quality 99.6 %
Test CRC F5CB09D6
Copy CRC F5CB09D6
Cannot be verified as accurate (confidence 1) [382CCE52], AccurateRip returned [39B41E7C] (AR v2)
Copy OK
Track 29
Filename C:\EAC rips\29 - Sweden.wav
Peak level 58.7 %
Extraction speed 0.6 X
Track quality 99.6 %
Test CRC 89AB0A62
Copy CRC 89AB0A62
Cannot be verified as accurate (confidence 1) [C7D5181B], AccurateRip returned [D1142A37] (AR v2)
Copy OK
Track 30
Filename C:\EAC rips\30 - USA.wav
Peak level 97.7 %
Extraction speed 0.9 X
Track quality 100.0 %
Test CRC 0C4CA4E7
Copy CRC 0C4CA4E7
Cannot be verified as accurate (confidence 1) [E8DE4AF9], AccurateRip returned [6F43FA81] (AR v2)
Copy OK
Track 31
Filename C:\EAC rips\31 - Canada 2.wav
Peak level 96.0 %
Extraction speed 0.6 X
Track quality 100.0 %
Test CRC 16796446
Copy CRC 16796446
Cannot be verified as accurate (confidence 1) [479C2DFA], AccurateRip returned [D3B11FF4] (AR v2)
Copy OK
Track 32
Filename C:\EAC rips\32 - Sweden 2.wav
Peak level 98.7 %
Extraction speed 0.6 X
Track quality 100.0 %
Test CRC B8AF69AF
Copy CRC B8AF69AF
Cannot be verified as accurate (confidence 1) [F70F46A6], AccurateRip returned [58A8F73E] (AR v2)
Copy OK
Track 33
Filename C:\EAC rips\33 - Italy.wav
Peak level 98.8 %
Extraction speed 0.5 X
Track quality 100.0 %
Test CRC 33AC18F7
Copy CRC 33AC18F7
Cannot be verified as accurate (confidence 1) [417F4B1E], AccurateRip returned [B37EB138] (AR v2)
Copy OK
Track 34
Filename C:\EAC rips\34 - Great Lobby.wav
Peak level 95.7 %
Extraction speed 1.0 X
Track quality 100.0 %
Test CRC 56E8C51B
Copy CRC 56E8C51B
Cannot be verified as accurate (confidence 1) [A9F7E9DD], AccurateRip returned [E7DEA970] (AR v2)
Copy OK
Track 35
Filename C:\EAC rips\35 - Wheelchair Races.wav
Peak level 98.8 %
Extraction speed 1.2 X
Track quality 100.0 %
Test CRC 9EE2D23C
Copy CRC 9EE2D23C
Cannot be verified as accurate (confidence 1) [B8EB0A3E], AccurateRip returned [DF471BEF] (AR v2)
Copy OK
Track 36
Filename C:\EAC rips\36 - Logo.wav
Peak level 95.5 %
Extraction speed 0.6 X
Track quality 100.0 %
Test CRC 6DDE7F40
Copy CRC 6DDE7F40
Cannot be verified as accurate (confidence 1) [4A684B9D], AccurateRip returned [DF384319] (AR v2)
Copy OK
Track 37
Filename C:\EAC rips\37 - Secret Code.wav
Peak level 92.4 %
Extraction speed 1.0 X
Track quality 100.0 %
Test CRC D6689DB0
Copy CRC D6689DB0
Cannot be verified as accurate (confidence 1) [F8B33207], AccurateRip returned [2BFC11A1] (AR v2)
Copy OK
Track 38
Filename C:\EAC rips\38 - Secret Code 2.wav
Peak level 87.4 %
Extraction speed 1.0 X
Track quality 99.8 %
Test CRC 5BC0EE08
Copy CRC 5BC0EE08
Cannot be verified as accurate (confidence 1) [7ACEC95B], AccurateRip returned [9CE90F60] (AR v2)
Copy OK
Track 39
Filename C:\EAC rips\39 - Don't Break.wav
Peak level 89.4 %
Extraction speed 1.1 X
Track quality 100.0 %
Test CRC 736F0BD9
Copy CRC 736F0BD9
Cannot be verified as accurate (confidence 1) [B376C06E], AccurateRip returned [D0044824] (AR v2)
Copy OK
Track 40
Filename C:\EAC rips\40 - Don't Break 2.wav
Peak level 94.8 %
Extraction speed 1.5 X
Track quality 100.0 %
Test CRC 6A6B9C3A
Copy CRC 6A6B9C3A
Cannot be verified as accurate (confidence 1) [AC8A9482], AccurateRip returned [2A4D1B0D] (AR v2)
Copy OK
Track 41
Filename C:\EAC rips\41 - Footnotes.wav
Peak level 92.9 %
Extraction speed 1.1 X
Track quality 100.0 %
Test CRC 53AE04C7
Copy CRC 53AE04C7
Cannot be verified as accurate (confidence 1) [5779552F], AccurateRip returned [893457B8] (AR v2)
Copy OK
Track 42
Filename C:\EAC rips\42 - Footnotes 2.wav
Peak level 94.3 %
Extraction speed 1.5 X
Track quality 100.0 %
Test CRC B69694D0
Copy CRC B69694D0
Cannot be verified as accurate (confidence 1) [B3DB127E], AccurateRip returned [F1E47608] (AR v2)
Copy OK
Track 43
Filename C:\EAC rips\43 - Retraction.wav
Peak level 94.9 %
Extraction speed 1.2 X
Track quality 100.0 %
Test CRC FB9DB963
Copy CRC FB9DB963
Cannot be verified as accurate (confidence 1) [F521DB6C], AccurateRip returned [C20FD489] (AR v2)
Copy OK
Track 44
Filename C:\EAC rips\44 - Retraction 2.wav
Peak level 95.4 %
Extraction speed 1.6 X
Track quality 100.0 %
Test CRC 072CB58F
Copy CRC 072CB58F
Cannot be verified as accurate (confidence 1) [C9247675], AccurateRip returned [084B9D8D] (AR v2)
Copy OK
Track 45
Filename C:\EAC rips\45 - Protest.wav
Peak level 84.4 %
Extraction speed 1.2 X
Track quality 100.0 %
Test CRC 8F6C9790
Copy CRC 8F6C9790
Cannot be verified as accurate (confidence 1) [F0754122], AccurateRip returned [100B2939] (AR v2)
Copy OK
Track 46
Filename C:\EAC rips\46 - Protest 2.wav
Peak level 85.7 %
Extraction speed 1.6 X
Track quality 100.0 %
Test CRC 5FCD2CAA
Copy CRC 5FCD2CAA
Cannot be verified as accurate (confidence 1) [7CD7D196], AccurateRip returned [C6566A64] (AR v2)
Copy OK
Track 47
Filename C:\EAC rips\47 - Launch.wav
Peak level 64.6 %
Extraction speed 1.3 X
Track quality 100.0 %
Test CRC 7FAB662A
Copy CRC 7FAB662A
Cannot be verified as accurate (confidence 1) [2A32EEE8], AccurateRip returned [BE49AB7C] (AR v2)
Copy OK
Track 48
Filename C:\EAC rips\48 - Launch 2.wav
Peak level 62.5 %
Extraction speed 1.2 X
Track quality 99.8 %
Test CRC 3E90CB2B
Copy CRC 3E90CB2B
Cannot be verified as accurate (confidence 1) [208788FF], AccurateRip returned [7214EA68] (AR v2)
Copy OK
Track 49
Filename C:\EAC rips\49 - Elevator.wav
Peak level 95.6 %
Extraction speed 1.3 X
Track quality 100.0 %
Test CRC 0C7970F7
Copy CRC 0C7970F7
Cannot be verified as accurate (confidence 1) [284DDD60], AccurateRip returned [E60B9E3F] (AR v2)
Copy OK
Track 50
Filename C:\EAC rips\50 - Elevator 2.wav
Peak level 95.7 %
Extraction speed 1.6 X
Track quality 100.0 %
Test CRC 6A4555B5
Copy CRC 6A4555B5
Cannot be verified as accurate (confidence 1) [2331160F], AccurateRip returned [65AA05A0] (AR v2)
Copy OK
Track 51
Filename C:\EAC rips\51 - Fiance.wav
Peak level 81.3 %
Extraction speed 1.3 X
Track quality 100.0 %
Test CRC 7CAD6E5C
Copy CRC 7CAD6E5C
Cannot be verified as accurate (confidence 1) [9B0907E3], AccurateRip returned [32CB181F] (AR v2)
Copy OK
Track 52
Filename C:\EAC rips\52 - Fiance 2.wav
Peak level 79.2 %
Extraction speed 1.7 X
Track quality 100.0 %
Test CRC 980B3AA9
Copy CRC 980B3AA9
Cannot be verified as accurate (confidence 1) [56D4972B], AccurateRip returned [7FCD3927] (AR v2)
Copy OK
Track 53
Filename C:\EAC rips\53 - Around the World.wav
Peak level 95.5 %
Extraction speed 1.6 X
Track quality 100.0 %
Test CRC C78C3D5E
Copy CRC C78C3D5E
Cannot be verified as accurate (confidence 1) [176A0491], AccurateRip returned [8D78FFBC] (AR v2)
Copy OK
Track 54
Filename C:\EAC rips\54 - Batman.wav
Peak level 95.5 %
Extraction speed 0.7 X
Track quality 99.6 %
Test CRC CCD74A4C
Copy CRC CCD74A4C
Cannot be verified as accurate (confidence 1) [3C8CB1D8], AccurateRip returned [806CEDA6] (AR v2)
Copy OK
Track 55
Filename C:\EAC rips\55 - Abstract Woman.wav
Peak level 94.1 %
Extraction speed 0.8 X
Track quality 99.6 %
Test CRC 5417FAE0
Copy CRC 5417FAE0
Cannot be verified as accurate (confidence 1) [A6BEA75B], AccurateRip returned [5EFEA950] (AR v2)
Copy OK
Track 56
Filename C:\EAC rips\56 - Mystic Woman.wav
Peak level 89.2 %
Extraction speed 1.2 X
Track quality 100.0 %
Test CRC BBC5446F
Copy CRC BBC5446F
Cannot be verified as accurate (confidence 1) [EB01F89B], AccurateRip returned [6231621E] (AR v2)
Copy OK
No tracks could be verified as accurate
You may have a different pressing from the one(s) in the database
No errors occurred
End of status report
---- CUETools DB Plugin V2.1.4
[CTDB TOCID: 6BbOG4CR5paIlTdvrf0vQl5FC3Y-] found
Submit result: 6BbOG4CR5paIlTdvrf0vQl5FC3Y- has been confirmed
Track | CTDB Status
1 | (2/2) Accurately ripped
2 | (2/2) Accurately ripped
3 | (2/2) Accurately ripped
4 | (2/2) Accurately ripped
5 | (2/2) Accurately ripped
6 | (2/2) Accurately ripped
7 | (2/2) Accurately ripped
8 | (2/2) Accurately ripped
9 | (2/2) Accurately ripped
10 | (2/2) Accurately ripped
11 | (2/2) Accurately ripped
12 | (2/2) Accurately ripped
13 | (2/2) Accurately ripped
14 | (2/2) Accurately ripped
15 | (2/2) Accurately ripped
16 | (2/2) Accurately ripped
17 | (2/2) Accurately ripped
18 | (2/2) Accurately ripped
19 | (2/2) Accurately ripped
20 | (2/2) Accurately ripped
21 | (2/2) Accurately ripped
22 | (2/2) Accurately ripped
23 | (2/2) Accurately ripped
24 | (2/2) Accurately ripped
25 | (2/2) Accurately ripped
26 | (2/2) Accurately ripped
27 | (2/2) Accurately ripped
28 | (2/2) Accurately ripped
29 | (2/2) Accurately ripped
30 | (2/2) Accurately ripped
31 | (2/2) Accurately ripped
32 | (2/2) Accurately ripped
33 | (2/2) Accurately ripped
34 | (2/2) Accurately ripped
35 | (2/2) Accurately ripped
36 | (2/2) Accurately ripped
37 | (2/2) Accurately ripped
38 | (2/2) Accurately ripped
39 | (2/2) Accurately ripped
40 | (2/2) Accurately ripped
41 | (2/2) Accurately ripped
42 | (2/2) Accurately ripped
43 | (2/2) Accurately ripped
44 | (2/2) Accurately ripped
45 | (2/2) Accurately ripped
46 | (2/2) Accurately ripped
47 | (2/2) Accurately ripped
48 | (2/2) Accurately ripped
49 | (2/2) Accurately ripped
50 | (2/2) Accurately ripped
51 | (2/2) Accurately ripped
52 | (2/2) Accurately ripped
53 | (2/2) Accurately ripped
54 | (2/2) Accurately ripped
55 | (2/2) Accurately ripped
56 | (2/2) Accurately ripped
==== Log checksum 0A5C881D7B63D6CB34AFA4C1053F8EAF3B871A388C2A638ED2C392A41918A772 ====
 
Содержание индексной карты (.CUE)
REM GENRE Soundtrack
REM DATE 1995
REM DISCID 260E2C38
REM COMMENT "ExactAudioCopy v1.0b3"
PERFORMER "John Zorn"
TITLE "Filmworks III: 1990-1995"
FILE "01 - Main Title.wav" WAVE
TRACK 01 AUDIO
TITLE "Main Title"
PERFORMER "John Zorn"
INDEX 01 00:00:00
FILE "02 - The Caper.wav" WAVE
TRACK 02 AUDIO
TITLE "The Caper"
PERFORMER "John Zorn"
INDEX 01 00:00:00
FILE "03 - Cadence.wav" WAVE
TRACK 03 AUDIO
TITLE "Cadence"
PERFORMER "John Zorn"
INDEX 01 00:00:00
FILE "04 - Kidnapping.wav" WAVE
TRACK 04 AUDIO
TITLE "Kidnapping"
PERFORMER "John Zorn"
INDEX 01 00:00:00
FILE "05 - Doubt.wav" WAVE
TRACK 05 AUDIO
TITLE "Doubt"
PERFORMER "John Zorn"
INDEX 01 00:00:00
FILE "06 - Nocturne.wav" WAVE
TRACK 06 AUDIO
TITLE "Nocturne"
PERFORMER "John Zorn"
INDEX 01 00:00:00
FILE "07 - Nocturne 2.wav" WAVE
TRACK 07 AUDIO
TITLE "Nocturne 2"
PERFORMER "John Zorn"
INDEX 01 00:00:00
FILE "08 - Bag Man.wav" WAVE
TRACK 08 AUDIO
TITLE "Bag Man"
PERFORMER "John Zorn"
INDEX 01 00:00:00
FILE "09 - The Cop.wav" WAVE
TRACK 09 AUDIO
TITLE "The Cop"
PERFORMER "John Zorn"
INDEX 01 00:00:00
FILE "10 - Nocturne 3.wav" WAVE
TRACK 10 AUDIO
TITLE "Nocturne 3"
PERFORMER "John Zorn"
INDEX 01 00:00:00
FILE "11 - Juke Box.wav" WAVE
TRACK 11 AUDIO
TITLE "Juke Box"
PERFORMER "John Zorn"
INDEX 01 00:00:00
FILE "12 - End Titles.wav" WAVE
TRACK 12 AUDIO
TITLE "End Titles"
PERFORMER "John Zorn"
INDEX 01 00:00:00
FILE "13 - Music for Tsunta (nine cues).wav" WAVE
TRACK 13 AUDIO
TITLE "Music for Tsunta (nine cues)"
PERFORMER "John Zorn"
INDEX 01 00:00:00
INDEX 02 00:22:72
INDEX 03 00:46:37
INDEX 04 01:09:37
INDEX 05 01:32:22
INDEX 06 01:53:15
INDEX 07 02:17:47
INDEX 08 02:39:72
INDEX 09 03:03:30
FILE "14 - Main Titles.wav" WAVE
TRACK 14 AUDIO
TITLE "Main Titles"
PERFORMER "John Zorn"
INDEX 01 00:00:00
FILE "15 - Washing Machine a.wav" WAVE
TRACK 15 AUDIO
TITLE "Washing Machine a"
PERFORMER "John Zorn"
INDEX 01 00:00:00
FILE "16 - Washing Machine b.wav" WAVE
TRACK 16 AUDIO
TITLE "Washing Machine b"
PERFORMER "John Zorn"
INDEX 01 00:00:00
FILE "17 - Night Hotel.wav" WAVE
TRACK 17 AUDIO
TITLE "Night Hotel"
PERFORMER "John Zorn"
INDEX 01 00:00:00
FILE "18 - Japanese Tourists.wav" WAVE
TRACK 18 AUDIO
TITLE "Japanese Tourists"
PERFORMER "John Zorn"
INDEX 01 00:00:00
FILE "19 - Night Hotel 2.wav" WAVE
TRACK 19 AUDIO
TITLE "Night Hotel 2"
PERFORMER "John Zorn"
INDEX 01 00:00:00
FILE "20 - Objects.wav" WAVE
TRACK 20 AUDIO
TITLE "Objects"
PERFORMER "John Zorn"
INDEX 01 00:00:00
FILE "21 - Night Hotel 3.wav" WAVE
TRACK 21 AUDIO
TITLE "Night Hotel 3"
PERFORMER "John Zorn"
INDEX 01 00:00:00
FILE "22 - Rooftop Death Rattle.wav" WAVE
TRACK 22 AUDIO
TITLE "Rooftop Death Rattle"
PERFORMER "John Zorn"
INDEX 01 00:00:00
FILE "23 - Taiwan.wav" WAVE
TRACK 23 AUDIO
TITLE "Taiwan"
PERFORMER "John Zorn"
INDEX 01 00:00:00
FILE "24 - End Titles.wav" WAVE
TRACK 24 AUDIO
TITLE "End Titles"
PERFORMER "John Zorn"
INDEX 01 00:00:00
FILE "25 - Holland.wav" WAVE
TRACK 25 AUDIO
TITLE "Holland"
PERFORMER "John Zorn"
INDEX 01 00:00:00
FILE "26 - Canada.wav" WAVE
TRACK 26 AUDIO
TITLE "Canada"
PERFORMER "John Zorn"
INDEX 01 00:00:00
FILE "27 - France.wav" WAVE
TRACK 27 AUDIO
TITLE "France"
PERFORMER "John Zorn"
INDEX 01 00:00:00
FILE "28 - Germany.wav" WAVE
TRACK 28 AUDIO
TITLE "Germany"
PERFORMER "John Zorn"
INDEX 01 00:00:00
FILE "29 - Sweden.wav" WAVE
TRACK 29 AUDIO
TITLE "Sweden"
PERFORMER "John Zorn"
INDEX 01 00:00:00
FILE "30 - USA.wav" WAVE
TRACK 30 AUDIO
TITLE "USA"
PERFORMER "John Zorn"
INDEX 01 00:00:00
FILE "31 - Canada 2.wav" WAVE
TRACK 31 AUDIO
TITLE "Canada 2"
PERFORMER "John Zorn"
INDEX 01 00:00:00
FILE "32 - Sweden 2.wav" WAVE
TRACK 32 AUDIO
TITLE "Sweden 2"
PERFORMER "John Zorn"
INDEX 01 00:00:00
FILE "33 - Italy.wav" WAVE
TRACK 33 AUDIO
TITLE "Italy"
PERFORMER "John Zorn"
INDEX 01 00:00:00
FILE "34 - Great Lobby.wav" WAVE
TRACK 34 AUDIO
TITLE "Great Lobby"
PERFORMER "John Zorn"
INDEX 01 00:00:00
FILE "35 - Wheelchair Races.wav" WAVE
TRACK 35 AUDIO
TITLE "Wheelchair Races"
PERFORMER "John Zorn"
INDEX 01 00:00:00
FILE "36 - Logo.wav" WAVE
TRACK 36 AUDIO
TITLE "Logo"
PERFORMER "John Zorn"
INDEX 01 00:00:00
FILE "37 - Secret Code.wav" WAVE
TRACK 37 AUDIO
TITLE "Secret Code"
PERFORMER "John Zorn"
INDEX 01 00:00:00
FILE "38 - Secret Code 2.wav" WAVE
TRACK 38 AUDIO
TITLE "Secret Code 2"
PERFORMER "John Zorn"
INDEX 01 00:00:00
FILE "39 - Don't Break.wav" WAVE
TRACK 39 AUDIO
TITLE "Don't Break"
PERFORMER "John Zorn"
INDEX 01 00:00:00
FILE "40 - Don't Break 2.wav" WAVE
TRACK 40 AUDIO
TITLE "Don't Break 2"
PERFORMER "John Zorn"
INDEX 01 00:00:00
FILE "41 - Footnotes.wav" WAVE
TRACK 41 AUDIO
TITLE "Footnotes"
PERFORMER "John Zorn"
INDEX 01 00:00:00
FILE "42 - Footnotes 2.wav" WAVE
TRACK 42 AUDIO
TITLE "Footnotes 2"
PERFORMER "John Zorn"
INDEX 01 00:00:00
FILE "43 - Retraction.wav" WAVE
TRACK 43 AUDIO
TITLE "Retraction"
PERFORMER "John Zorn"
INDEX 01 00:00:00
FILE "44 - Retraction 2.wav" WAVE
TRACK 44 AUDIO
TITLE "Retraction 2"
PERFORMER "John Zorn"
INDEX 01 00:00:00
FILE "45 - Protest.wav" WAVE
TRACK 45 AUDIO
TITLE "Protest"
PERFORMER "John Zorn"
INDEX 01 00:00:00
FILE "46 - Protest 2.wav" WAVE
TRACK 46 AUDIO
TITLE "Protest 2"
PERFORMER "John Zorn"
INDEX 01 00:00:00
FILE "47 - Launch.wav" WAVE
TRACK 47 AUDIO
TITLE "Launch"
PERFORMER "John Zorn"
INDEX 01 00:00:00
FILE "48 - Launch 2.wav" WAVE
TRACK 48 AUDIO
TITLE "Launch 2"
PERFORMER "John Zorn"
INDEX 01 00:00:00
FILE "49 - Elevator.wav" WAVE
TRACK 49 AUDIO
TITLE "Elevator"
PERFORMER "John Zorn"
INDEX 01 00:00:00
FILE "50 - Elevator 2.wav" WAVE
TRACK 50 AUDIO
TITLE "Elevator 2"
PERFORMER "John Zorn"
INDEX 01 00:00:00
FILE "51 - Fiance.wav" WAVE
TRACK 51 AUDIO
TITLE "Fiance"
PERFORMER "John Zorn"
INDEX 01 00:00:00
FILE "52 - Fiance 2.wav" WAVE
TRACK 52 AUDIO
TITLE "Fiance 2"
PERFORMER "John Zorn"
INDEX 01 00:00:00
FILE "53 - Around the World.wav" WAVE
TRACK 53 AUDIO
TITLE "Around the World"
PERFORMER "John Zorn"
INDEX 01 00:00:00
FILE "54 - Batman.wav" WAVE
TRACK 54 AUDIO
TITLE "Batman"
PERFORMER "John Zorn"
INDEX 01 00:00:00
FILE "55 - Abstract Woman.wav" WAVE
TRACK 55 AUDIO
TITLE "Abstract Woman"
PERFORMER "John Zorn"
INDEX 01 00:00:00
FILE "56 - Mystic Woman.wav" WAVE
TRACK 56 AUDIO
TITLE "Mystic Woman"
PERFORMER "John Zorn"
INDEX 01 00:00:00
 
CUETools
[CUETools log; Date: 08.04.2013 23:45:50; Version: 2.1.4]
[CTDB TOCID: 6BbOG4CR5paIlTdvrf0vQl5FC3Y-] found.
Track | CTDB Status
1 | (3/3) Accurately ripped
2 | (3/3) Accurately ripped
3 | (3/3) Accurately ripped
4 | (3/3) Accurately ripped
5 | (3/3) Accurately ripped
6 | (3/3) Accurately ripped
7 | (3/3) Accurately ripped
8 | (3/3) Accurately ripped
9 | (3/3) Accurately ripped
10 | (3/3) Accurately ripped
11 | (3/3) Accurately ripped
12 | (3/3) Accurately ripped
13 | (3/3) Accurately ripped
14 | (3/3) Accurately ripped
15 | (3/3) Accurately ripped
16 | (3/3) Accurately ripped
17 | (3/3) Accurately ripped
18 | (3/3) Accurately ripped
19 | (3/3) Accurately ripped
20 | (3/3) Accurately ripped
21 | (3/3) Accurately ripped
22 | (3/3) Accurately ripped
23 | (3/3) Accurately ripped
24 | (3/3) Accurately ripped
25 | (3/3) Accurately ripped
26 | (3/3) Accurately ripped
27 | (3/3) Accurately ripped
28 | (3/3) Accurately ripped
29 | (3/3) Accurately ripped
30 | (3/3) Accurately ripped
31 | (3/3) Accurately ripped
32 | (3/3) Accurately ripped
33 | (3/3) Accurately ripped
34 | (3/3) Accurately ripped
35 | (3/3) Accurately ripped
36 | (3/3) Accurately ripped
37 | (3/3) Accurately ripped
38 | (3/3) Accurately ripped
39 | (3/3) Accurately ripped
40 | (3/3) Accurately ripped
41 | (3/3) Accurately ripped
42 | (3/3) Accurately ripped
43 | (3/3) Accurately ripped
44 | (3/3) Accurately ripped
45 | (3/3) Accurately ripped
46 | (3/3) Accurately ripped
47 | (3/3) Accurately ripped
48 | (3/3) Accurately ripped
49 | (3/3) Accurately ripped
50 | (3/3) Accurately ripped
51 | (3/3) Accurately ripped
52 | (3/3) Accurately ripped
53 | (3/3) Accurately ripped
54 | (3/3) Accurately ripped
55 | (3/3) Accurately ripped
56 | (3/3) Accurately ripped
[AccurateRip ID: 00861e7c-13b14991-260e2c38] found.
Track [ CRC | V2 ] Status
01 [b253ec81|34174583] (0+0/1) No match
02 [9908a7c8|6b09921c] (0+0/1) No match
03 [93b8fa47|2466bdbb] (0+0/1) No match
04 [0689c6a9|c4d95d34] (0+0/1) No match
05 [1c45a462|420b46d1] (0+0/1) No match
06 [fb04ebfa|64512aed] (0+0/1) No match
07 [b45b3edc|17bf0638] (0+0/1) No match
08 [8a430cbc|ca8dbac9] (0+0/1) No match
09 [1c52b906|d8e4aabc] (0+0/1) No match
10 [4b63205d|f4e4e7f2] (0+0/1) No match
11 [990b1634|31a52321] (0+0/1) No match
12 [8fd125cf|76d60be4] (0+0/1) No match
13 [93c2cc8f|8c24dd00] (0+0/1) No match
14 [a0bc3904|4cfbd3e1] (0+0/1) No match
15 [33b234dc|cf16574d] (0+0/1) No match
16 [39ec2e79|462f56cb] (0+0/1) No match
17 [869b46b8|c55a0ef8] (0+0/1) No match
18 [df651e48|d3c83dc1] (0+0/1) No match
19 [dc718e7f|d645d72e] (0+0/1) No match
20 [7c733dbb|9d0255dc] (0+0/1) No match
21 [34243e7a|25b61e55] (0+0/1) No match
22 [1d11c110|f36c5c5c] (0+0/1) No match
23 [52c8e872|4c97c6e4] (0+0/1) No match
24 [31a8032e|162f691a] (0+0/1) No match
25 [cb6d8ba8|c8db3f61] (0+0/1) No match
26 [68fbbc32|07158deb] (0+0/1) No match
27 [e2fa493b|625168fe] (0+0/1) No match
28 [94d3dd15|382cce52] (0+0/1) No match
29 [a517f088|c7d5181b] (0+0/1) No match
30 [d81a697e|e8de4af9] (0+0/1) No match
31 [9450cc1f|479c2dfa] (0+0/1) No match
32 [1961eec1|f70f46a6] (0+0/1) No match
33 [b5b12b3f|417f4b1e] (0+0/1) No match
34 [f17763fd|a9f7e9dd] (0+0/1) No match
35 [6d99f3bf|b8eb0a3e] (0+0/1) No match
36 [b17b6ad6|4a684b9d] (0+0/1) No match
37 [bfa30b15|f8b33207] (0+0/1) No match
38 [05c00a6c|7acec95b] (0+0/1) No match
39 [58a35627|b376c06e] (0+0/1) No match
40 [e52c3d4c|ac8a9482] (0+0/1) No match
41 [567aa583|5779552f] (0+0/1) No match
42 [9248c891|b3db127e] (0+0/1) No match
43 [3d5250a8|f521db6c] (0+0/1) No match
44 [056783bc|c9247675] (0+0/1) No match
45 [76120d56|f0754122] (0+0/1) No match
46 [e7d2a8da|7cd7d196] (0+0/1) No match
47 [fa2f9019|2a32eee8] (0+0/1) No match
48 [12a4736e|208788ff] (0+0/1) No match
49 [8a066bbd|284ddd60] (0+0/1) No match
50 [b4a67157|2331160f] (0+0/1) No match
51 [e1d9cc0f|9b0907e3] (0+0/1) No match
52 [b686e83e|56d4972b] (0+0/1) No match
53 [ca59748b|176a0491] (0+0/1) No match
54 [82939813|3c8cb1d8] (0+0/1) No match
55 [a5c672a7|a6bea75b] (0+0/1) No match
56 [67110f90|eb01f89b] (0+0/1) No match
Offsetted by 99:
01 [bab1cd7b] (1/1) Accurately ripped
02 [3a827136] (1/1) Accurately ripped
03 [d67302d8] (1/1) Accurately ripped
04 [752b587d] (1/1) Accurately ripped
05 [d64ad582] (1/1) Accurately ripped
06 [aab32814] (1/1) Accurately ripped
07 [debe08f6] (1/1) Accurately ripped
08 [29a5284a] (1/1) Accurately ripped
09 [cf9258bb] (1/1) Accurately ripped
10 [4d773fe6] (1/1) Accurately ripped
11 [e1998046] (1/1) Accurately ripped
12 [1d001fb0] (1/1) Accurately ripped
13 [9d9139b1] (1/1) Accurately ripped
14 [37d172ae] (1/1) Accurately ripped
15 [5dd16761] (1/1) Accurately ripped
16 [02adbe91] (1/1) Accurately ripped
17 [e0c64f4e] (1/1) Accurately ripped
18 [c5f33a5b] (1/1) Accurately ripped
19 [a9d7a495] (1/1) Accurately ripped
20 [177bc0fd] (1/1) Accurately ripped
21 [a1396767] (1/1) Accurately ripped
22 [ce65e63f] (1/1) Accurately ripped
23 [3b7ad7ca] (1/1) Accurately ripped
24 [57d078b3] (1/1) Accurately ripped
25 [f1cb2636] (1/1) Accurately ripped
26 [7644855d] (1/1) Accurately ripped
27 [8ae46be8] (1/1) Accurately ripped
28 [39b41e7c] (1/1) Accurately ripped
29 [d1142a37] (1/1) Accurately ripped
30 [6f43fa81] (1/1) Accurately ripped
31 [d3b11ff4] (1/1) Accurately ripped
32 [58a8f73e] (1/1) Accurately ripped
33 [b37eb138] (1/1) Accurately ripped
34 [e7dea970] (1/1) Accurately ripped
35 [df471bef] (1/1) Accurately ripped
36 [df384319] (1/1) Accurately ripped
37 [2bfc11a1] (1/1) Accurately ripped
38 [9ce90f60] (1/1) Accurately ripped
39 [d0044824] (1/1) Accurately ripped
40 [2a4d1b0d] (1/1) Accurately ripped
41 [893457b8] (1/1) Accurately ripped
42 [f1e47608] (1/1) Accurately ripped
43 [c20fd489] (1/1) Accurately ripped
44 [084b9d8d] (1/1) Accurately ripped
45 [100b2939] (1/1) Accurately ripped
46 [c6566a64] (1/1) Accurately ripped
47 [be49ab7c] (1/1) Accurately ripped
48 [7214ea68] (1/1) Accurately ripped
49 [e60b9e3f] (1/1) Accurately ripped
50 [65aa05a0] (1/1) Accurately ripped
51 [32cb181f] (1/1) Accurately ripped
52 [7fcd3927] (1/1) Accurately ripped
53 [8d78ffbc] (1/1) Accurately ripped
54 [806ceda6] (1/1) Accurately ripped
55 [5efea950] (1/1) Accurately ripped
56 [6231621e] (1/1) Accurately ripped
Track Peak [ CRC32 ] [W/O NULL] [ LOG ]
-- 98.8 [2F02EC50] [DF420C6E]
01 95.9 [D9A2974E] [8D532198] CRC32
02 95.7 [727CEDF0] [A9CF8FDE] CRC32
03 51.9 [355620FC] [CF2E2F4F] CRC32
04 98.7 [94559CCE] [6EA2A20D] CRC32
05 61.0 [83260B30] [7BADABEA] CRC32
06 52.6 [D8503343] [BABA8D9C] CRC32
07 95.9 [7EF136D2] [B291EA62] CRC32
08 98.2 [632FC25C] [EE8355B8] CRC32
09 51.6 [543DF5AC] [02307B31] CRC32
10 56.9 [CBFFD638] [C357D04A] CRC32
11 96.7 [8F8749BA] [24474391] CRC32
12 56.0 [49626E24] [2A64BCD0] CRC32
13 96.1 [2A289328] [892D9942] CRC32
14 73.2 [DCB19467] [1EAFEC11] CRC32
15 91.8 [5322154B] [1949069F] CRC32
16 80.8 [7B9F219B] [E229FF62] CRC32
17 68.7 [237658FC] [53A558B0] CRC32
18 97.2 [C14826E0] [BFA7907D] CRC32
19 93.1 [BA98607D] [B20C6937] CRC32
20 98.8 [52ED28B3] [D4D00372] CRC32
21 97.0 [F5B4EDF6] [14CE85E0] CRC32
22 97.3 [8FBCB97B] [9C1DD6E0] CRC32
23 91.0 [DA5673AD] [3FD3778F] CRC32
24 87.5 [A70D3614] [469F2CB5] CRC32
25 80.0 [998877E8] [92987184] CRC32
26 70.3 [0E4D00E9] [EDE5BD41] CRC32
27 97.8 [D1344417] [8C2760F0] CRC32
28 98.8 [F5CB09D6] [18500D8E] CRC32
29 58.7 [89AB0A62] [094C69CB] CRC32
30 97.7 [0C4CA4E7] [21598BAC] CRC32
31 96.0 [16796446] [DD89D474] CRC32
32 98.7 [B8AF69AF] [454D9FD0] CRC32
33 98.8 [33AC18F7] [9A08DE2F] CRC32
34 95.7 [56E8C51B] [8D90E436] CRC32
35 98.8 [9EE2D23C] [F12058EF] CRC32
36 95.5 [6DDE7F40] [7F2A7E84] CRC32
37 92.4 [D6689DB0] [2B92A707] CRC32
38 87.4 [5BC0EE08] [B6CA2038] CRC32
39 89.4 [736F0BD9] [2344C0CE] CRC32
40 94.8 [6A6B9C3A] [01E34FA8] CRC32
41 92.9 [53AE04C7] [D5227E1A] CRC32
42 94.3 [B69694D0] [FD6CF25F] CRC32
43 94.9 [FB9DB963] [CE98AB67] CRC32
44 95.4 [072CB58F] [3AA59012] CRC32
45 84.4 [8F6C9790] [35AB99D0] CRC32
46 85.7 [5FCD2CAA] [867AB3FA] CRC32
47 64.6 [7FAB662A] [34B52C0D] CRC32
48 62.5 [3E90CB2B] [E4BFECE2] CRC32
49 95.6 [0C7970F7] [1F17A8CD] CRC32
50 95.7 [6A4555B5] [93DD5B10] CRC32
51 81.3 [7CAD6E5C] [B3D069B7] CRC32
52 79.2 [980B3AA9] [1F35B37B] CRC32
53 95.5 [C78C3D5E] [C6E69CE0] CRC32
54 95.5 [CCD74A4C] [F9AEC75A] CRC32
55 94.1 [5417FAE0] [4133D151] CRC32
56 89.2 [BBC5446F] [4736E4BB] CRC32
Доп. информация: Thieves Quartet recorded and mixed at Shelley Palmer Studio, NYC, July 1993.
Music for Tsunta recorded and mixed at Shelley Palmer Studio, NYC, February 1988.
Hollywood Hotel recorded and mixed at Harmonic Ranch, NYC, April 21, 1994.
Music for Weiden and Kennedy recorded and mixed at Shelley Palmer Studio, NYC
- tracks 25-33 November 1990
- track 34 March 1992
- tracks 35-36 August 25, 1993
- tracks 37-52 May 13, 1994
- track 53 November 3, 1994
- tracks 54-56 January 24, 1996.
 
Состав
Thieves Quartet (1993)
01. Main Title
02. The Caper
03. Cadence
04. Kidnapping
05. Doubt
06. Nocturne
07. Nocturne 2
08. Bag Man
09. The Cop
10. Nocturne 3
11. Juke Box
12. End Titles
John Zorn – Alto Saxophone (Piano on track 12)
Dave Douglas – Trumpet
Greg Cohen – Bass
Joey Baron – Drums
Special guest on track 11 : Robert Quine – Guitar
Music for Tsunta (1988)
13. Music for Tsunta (nine cues)

Bill Frisell – Guitar, Banjo
Peter Scherer – Keyboards
Carol Emanuel – Harp
Christian Marclay – Turntables
David Hoestra – Bass, Tuba
Ciro Baptista – Percussion, Voice
Bobby Previte – Drums, Percussion
Hollywood Hotel (1994)
14. Main Titles
15. Washing Machine a
16. Washing Machine b
17. Night Hotel
18. Japanese Tourists
19. Night Hotel 2
20. Objects
21. Night Hotel 3
22. Rooftop Death Rattle
23. Taiwan
24. End Titles
John Zorn – Alto Saxophone
Marc Ribot – Guitars
Music for Weiden and Kennedy (1990-1995)
25. Holland
Carol Emanuel – Harp
Marc Ribot – Banjo
Ciro Baptista – Percussion
Kermit Driscoll – Bass
26. Canada
Peter Scherer – Keyboards
David Shea – Samples
Ciro Baptista – Percussion
Carol Emanuel – Harp
27. France
Arto Lindsay – Guitar, Voice
Bill Laswell – Bass
Ikue Mori – Drum Machines
28. Germany
Arto Lindsay – Guitar
Marc Ribot – Guitar
Ikue Mori – Drum Machines
29. Sweden
Keith Underwood – Flute
Jill Jaffee – Viola
Carol Emanuel – Harp
Miguel Frasconi – Glass Harmonica
30. USA
Robert Quine – Guitar
Bill Laswell – Bass
David Shea – Turntables, Voice
31. Canada 2
Peter Scherer – Keyboards
David Shea – Samples
Ciro Baptista – Percussion
Carol Emanuel – Hapr
32. Sweden 2
Keith Underwood – Flute
Jill Jaffee – Viola
Carol Emanuel – Harp
Miguel Frasconi – Glass Harmonica
33. Italy
Guy Klucevsek – Accordion
Anthony Coleman – Organ
Greg Cohen – Bass
Joey Baron – Drums
34. Great Lobby
Robert Quine – Guitar
Anthony Coleman – Keyboards
Ciro Baptista – Percussion
35. Wheelchair Races
Robert Quine – Guitar
Marc Ribot – Guitar
David Shea – Keboards
Chris Wood – Bass
Sim Cain – Drums
36. Logo
Ciro Baptista – Percussion
37. Secret Code
38. Secret Code 2
39. Don’t Break
40. Don’t Break 2
41. Footnotes
42. Footnotes 2
43. Retraction
44. Retraction 2
45. Protest
46. Protest 2
47. Launch
48. Launch 2
49. Elevator
50. Elevator 2
51. Fiance
52. Fiance 2
Robert Quine – Guitar
Marc Ribot – Guitar
David Shea – Keyboards
Eric Friedlander – Cello
Chris Wood – Bass
Ciro Baptista – Percussion
53. Around the World
Robert Quine – Guitar
Eric Friedlander – Cello
David Shea – Keyboards
Ikue Mori – Drum Machines
Ciro Baptista – Percussion
54. Batman
55. Abstract Woman
56. Mystic Woman
Robert Quine – Guitar
Marc Ribot – Guitar
Anthony Coleman – Keyboards
Eric Friedlander – Cello
Chris Wood – Bass
Ciro Baptista – Percussion
Joey Baron – Drums
John Zorn – Alto Saxophone
Any questions -> support@pro-jazz.com. По всем вопросам пишите -> support@pro-jazz.com
10:46
247
Нет комментариев. Ваш будет первым!