Вы используете незарегистрированную версию компонента "Вкладки"!

Поиск

(Avant-Garde, Contemporary Jazz) David Murray & Milford Graves - Real Deal - 1992, FLAC (tracks+.cue), lossless

(Avant-Garde, Contemporary Jazz) David Murray & Milford Graves - Real Deal - 1992, FLAC (tracks+.cue), lossless
Треклист:
David Murray & Milford Graves / Real Deal
Жанр: Avant-Garde, Contemporary Jazz
Страна-производитель диска: Japan
Год издания: 1992
Издатель (лейбл): DIW Records
Номер по каталогу: DIW-867
Аудиокодек: FLAC (*.flac)
Тип рипа: tracks+.cue
Битрейт аудио: lossless
Продолжительность: 1:03:54
Источник (релизер): Max Monteiro
Наличие сканов в содержимом раздачи: да
Треклист:
1. Stated with Peace (David Murray) 7:51
2. The Third Day (David Murray) 8:51
3. Luxor (David Murray) 8:31
4. Under & Over (Milford Graves) 6:04
5. Moving About (Milford Graves) 11:09
6. Ultimate High Priest (Milford Graves) 6:28
7. Essential Soul (Milford Graves) 10:50
8. Continuity (David Murray) 4:11
 
Лог создания рипа
Exact Audio Copy V1.0 beta 3 from 29. August 2011
EAC extraction logfile from 26. February 2013, 9:34
David Murray & Milford Graves / Real Deal
Used drive : SlimtypeeNAU508 5 Adapter: 1 ID: 0
Read mode : Secure
Utilize accurate stream : Yes
Defeat audio cache : Yes
Make use of C2 pointers : No
Read offset correction : 6
Overread into Lead-In and Lead-Out : No
Fill up missing offset samples with silence : Yes
Delete leading and trailing silent blocks : No
Null samples used in CRC calculations : Yes
Used interface : Native Win32 interface for Win NT & 2000
Gap handling : Appended to previous track
Used output format : User Defined Encoder
Selected bitrate : 768 kBit/s
Quality : High
Add ID3 tag : No
Command line compressor : C:\Program Files (x86)\Exact Audio Copy\Flac\flac.exe
Additional command line options : -8 -V -T "ARTIST=%artist%" -T "TITLE=%title%" -T "ALBUM=%albumtitle%" -T "DATE=%year%" -T "TRACKNUMBER=%tracknr%" -T "GENRE=%genre%" -T "PERFORMER=%albuminterpret%" -T "COMPOSER=%composer%" %haslyrics%--tag-from-file=LYRICS="%lyricsfile%"%haslyrics% -T "ALBUMARTIST=%albumartist%" -T "DISCNUMBER=%cdnumber%" -T "TOTALDISCS=%totalcds%" -T "TOTALTRACKS=%numtracks%" -T "COMMENT=%comment%" %source% -o %dest%
TOC of the extracted CD
Track | Start | Length | Start sector | End sector
---------------------------------------------------------
1 | 0:00.00 | 7:50.67 | 0 | 35316
2 | 7:50.67 | 8:50.58 | 35317 | 75124
3 | 16:41.50 | 8:30.47 | 75125 | 113421
4 | 25:12.22 | 6:04.20 | 113422 | 140741
5 | 31:16.42 | 11:09.08 | 140742 | 190924
6 | 42:25.50 | 6:27.42 | 190925 | 219991
7 | 48:53.17 | 10:49.63 | 219992 | 268729
8 | 59:43.05 | 4:10.70 | 268730 | 287549
Track 1
Filename C:\EAC rips\01 - Stated with Peace.wav
Pre-gap length 0:00:02.00
Peak level 99.2 %
Extraction speed 2.5 X
Track quality 100.0 %
Test CRC 04E8D516
Copy CRC 04E8D516
Accurately ripped (confidence 3) [854F8AC1] (AR v1)
Copy OK
Track 2
Filename C:\EAC rips\02 - The Third Day.wav
Pre-gap length 0:00:00.37
Peak level 99.2 %
Extraction speed 3.0 X
Track quality 100.0 %
Test CRC C39BD2D4
Copy CRC C39BD2D4
Accurately ripped (confidence 3) [3206FBEF] (AR v1)
Copy OK
Track 3
Filename C:\EAC rips\03 - Luxor.wav
Pre-gap length 0:00:00.38
Peak level 99.2 %
Extraction speed 3.0 X
Track quality 99.9 %
Test CRC 8499F533
Copy CRC 8499F533
Accurately ripped (confidence 3) [DB6AEC24] (AR v1)
Copy OK
Track 4
Filename C:\EAC rips\04 - Under & Over.wav
Pre-gap length 0:00:01.00
Peak level 99.2 %
Extraction speed 3.6 X
Track quality 100.0 %
Test CRC F93C8755
Copy CRC F93C8755
Accurately ripped (confidence 3) [915E8253] (AR v1)
Copy OK
Track 5
Filename C:\EAC rips\05 - Moving About.wav
Pre-gap length 0:00:00.37
Peak level 99.2 %
Extraction speed 4.1 X
Track quality 100.0 %
Test CRC 01F34E2B
Copy CRC 01F34E2B
Accurately ripped (confidence 3) [A5434E49] (AR v1)
Copy OK
Track 6
Filename C:\EAC rips\06 - Ultimate High Priest.wav
Pre-gap length 0:00:00.38
Peak level 99.2 %
Extraction speed 4.2 X
Track quality 100.0 %
Test CRC 302916CC
Copy CRC 302916CC
Accurately ripped (confidence 3) [AE1EC06D] (AR v1)
Copy OK
Track 7
Filename C:\EAC rips\07 - Essential Soul.wav
Pre-gap length 0:00:00.37
Peak level 99.2 %
Extraction speed 4.6 X
Track quality 100.0 %
Test CRC 62B60B29
Copy CRC 62B60B29
Accurately ripped (confidence 3) [0BDDCE2E] (AR v1)
Copy OK
Track 8
Filename C:\EAC rips\08 - Continuity.wav
Pre-gap length 0:00:00.38
Peak level 99.2 %
Extraction speed 4.4 X
Track quality 100.0 %
Test CRC D4AEF8C3
Copy CRC D4AEF8C3
Accurately ripped (confidence 3) [76EAC0F8] (AR v1)
Copy OK
All tracks accurately ripped
No errors occurred
End of status report
---- CUETools DB Plugin V2.1.4
[CTDB TOCID: HiF5VJriUQczZzSAu7JBt3lCqeo-] found
Submit result: HiF5VJriUQczZzSAu7JBt3lCqeo- has been confirmed
Track | CTDB Status
1 | (1/1) Accurately ripped
2 | (1/1) Accurately ripped
3 | (1/1) Accurately ripped
4 | (1/1) Accurately ripped
5 | (1/1) Accurately ripped
6 | (1/1) Accurately ripped
7 | (1/1) Accurately ripped
8 | (1/1) Accurately ripped
==== Log checksum 0FD858078E9488BF06F516DDA169943F5DF97DEE613CC62541FB15F26E91AA0D ====
 
Содержание индексной карты (.CUE)
REM GENRE Jazz
REM DATE 1992
REM DISCID 700EFA08
REM COMMENT "ExactAudioCopy v1.0b3"
PERFORMER "David Murray & Milford Graves"
TITLE "Real Deal"
FILE "01 - Stated with Peace.wav" WAVE
TRACK 01 AUDIO
TITLE "Stated with Peace"
PERFORMER "David Murray & Milford Graves"
INDEX 01 00:00:00
TRACK 02 AUDIO
TITLE "The Third Day"
PERFORMER "David Murray & Milford Graves"
INDEX 00 07:50:30
FILE "02 - The Third Day.wav" WAVE
INDEX 01 00:00:00
TRACK 03 AUDIO
TITLE "Luxor"
PERFORMER "David Murray & Milford Graves"
INDEX 00 08:50:20
FILE "03 - Luxor.wav" WAVE
INDEX 01 00:00:00
TRACK 04 AUDIO
TITLE "Under & Over"
PERFORMER "David Murray & Milford Graves"
INDEX 00 08:29:47
FILE "04 - Under & Over.wav" WAVE
INDEX 01 00:00:00
TRACK 05 AUDIO
TITLE "Moving About"
PERFORMER "David Murray & Milford Graves"
INDEX 00 06:03:58
FILE "05 - Moving About.wav" WAVE
INDEX 01 00:00:00
TRACK 06 AUDIO
TITLE "Ultimate High Priest"
PERFORMER "David Murray & Milford Graves"
INDEX 00 11:08:45
FILE "06 - Ultimate High Priest.wav" WAVE
INDEX 01 00:00:00
TRACK 07 AUDIO
TITLE "Essential Soul"
PERFORMER "David Murray & Milford Graves"
INDEX 00 06:27:05
FILE "07 - Essential Soul.wav" WAVE
INDEX 01 00:00:00
TRACK 08 AUDIO
TITLE "Continuity"
PERFORMER "David Murray & Milford Graves"
INDEX 00 10:49:25
FILE "08 - Continuity.wav" WAVE
INDEX 01 00:00:00
Доп. информация: Recorded at Power Station, NYC on November 3, 1991.
 
Состав
David Murray – Tenor Saxophone, Bass Clarinet
Milford Graves – Drums, Percussion
По всем вопросам пишите личное сообщение пользователю M0p94ok.
09:33
159
Нет комментариев. Ваш будет первым!