Вы используете незарегистрированную версию компонента "Вкладки"!

Поиск

(Avant-Gerde Jazz, Free Improvisation) Peter Brotzmann, Han Bennink - Schwarzwaldfahrt 2 CD - 2005 (1977), FLAC (image+.cue), lossless

(Avant-Gerde Jazz, Free Improvisation) Peter Brotzmann, Han Bennink - Schwarzwaldfahrt 2 CD - 2005 (1977), FLAC (image+.cue), lossless
Треклист:
Peter Brotzmann, Han Bennink / Schwarzwaldfahrt 2 CD
Жанр: Avant-Gerde Jazz, Free Improvisation
Страна-производитель диска: Canada
Год издания: 2005
Издатель (лейбл): Atavistic
Номер по каталогу: FMP 0440
Страна: Germany
Аудиокодек: FLAC (*.flac)
Тип рипа: image+.cue
Битрейт аудио: lossless
Продолжительность: 90 min
Источник (релизер): CD
Наличие сканов в содержимом раздачи: да
Треклист:
1-20 - Nr. Nr. 1-20 (без названий)
 
Лог создания рипа
CD 1
Exact Audio Copy V0.99 prebeta 5 from 4. May 2009
EAC extraction logfile from 26. February 2013, 14:16
Bennink/Brotzmann / Schwarzwaldfahrt
Used drive : TSSTcorpCDDVDW SH-224BB Adapter: 0 ID: 1
Read mode : Secure
Utilize accurate stream : Yes
Defeat audio cache : Yes
Make use of C2 pointers : No
Read offset correction : 48
Overread into Lead-In and Lead-Out : No
Fill up missing offset samples with silence : Yes
Delete leading and trailing silent blocks : No
Null samples used in CRC calculations : Yes
Used interface : Native Win32 interface for Win NT & 2000
Used output format : User Defined Encoder
Selected bitrate : 192 kBit/s
Quality : High
Add ID3 tag : Yes
Command line compressor : C:\Program Files (x86)\Exact Audio Copy\Flac\flac.exe
Additional command line options : -6 -V -T "ARTIST=%a" -T "TITLE=%t" -T "ALBUM=%g" -T "DATE=%y" -T "TRACKNUMBER=%n" -T "GENRE=%m" -T "COMMENT=%e" %s -o %d
TOC of the extracted CD
Track | Start | Length | Start sector | End sector
---------------------------------------------------------
1 | 0:00.00 | 5:58.55 | 0 | 26904
2 | 5:58.55 | 2:28.11 | 26905 | 38015
3 | 8:26.66 | 6:16.63 | 38016 | 66278
4 | 14:43.54 | 6:23.20 | 66279 | 95023
5 | 21:06.74 | 0:36.57 | 95024 | 97780
6 | 21:43.56 | 2:46.72 | 97781 | 110302
7 | 24:30.53 | 8:19.70 | 110303 | 147797
8 | 32:50.48 | 1:41.67 | 147798 | 155439
9 | 34:32.40 | 3:53.18 | 155440 | 172932
10 | 38:25.58 | 4:43.19 | 172933 | 194176
Range status and errors
Selected range
Filename C:\Users\Игорь\Music\eac\Bennink Brotzmann - Schwarzwaldfahrt.wav
Peak level 80.6 %
Range quality 100.0 %
Test CRC 7D483571
Copy CRC 7D483571
Copy OK
No errors occurred
End of status report
CD 2
Exact Audio Copy V0.99 prebeta 5 from 4. May 2009
EAC extraction logfile from 16. February 2013, 22:32
Broetzmann Bennink / Schwarzwaldfahrt Disc2
Used drive : TSSTcorpCDDVDW SH-224BB Adapter: 0 ID: 1
Read mode : Secure
Utilize accurate stream : Yes
Defeat audio cache : Yes
Make use of C2 pointers : No
Read offset correction : 48
Overread into Lead-In and Lead-Out : No
Fill up missing offset samples with silence : Yes
Delete leading and trailing silent blocks : No
Null samples used in CRC calculations : Yes
Used interface : Native Win32 interface for Win NT & 2000
Used output format : User Defined Encoder
Selected bitrate : 192 kBit/s
Quality : High
Add ID3 tag : Yes
Command line compressor : C:\Program Files (x86)\Exact Audio Copy\Flac\flac.exe
Additional command line options : -6 -V -T "ARTIST=%a" -T "TITLE=%t" -T "ALBUM=%g" -T "DATE=%y" -T "TRACKNUMBER=%n" -T "GENRE=%m" -T "COMMENT=%e" %s -o %d
TOC of the extracted CD
Track | Start | Length | Start sector | End sector
---------------------------------------------------------
1 | 0:00.00 | 7:36.62 | 0 | 34261
2 | 7:36.62 | 1:22.57 | 34262 | 40468
3 | 8:59.44 | 5:44.55 | 40469 | 66323
4 | 14:44.24 | 12:19.17 | 66324 | 121765
5 | 27:03.41 | 5:18.65 | 121766 | 145680
6 | 32:22.31 | 1:35.02 | 145681 | 152807
7 | 33:57.33 | 2:11.12 | 152808 | 162644
8 | 36:08.45 | 6:57.24 | 162645 | 193943
9 | 43:05.69 | 8:30.04 | 193944 | 232197
10 | 51:35.73 | 8:04.62 | 232198 | 268559
11 | 59:40.60 | 2:43.10 | 268560 | 280794
12 | 62:23.70 | 2:05.72 | 280795 | 290241
Range status and errors
Selected range
Filename C:\Users\Игорь\Music\eac\Broetzmann Bennink - Schwarzwaldfahrt Disc2.wav
Peak level 50.8 %
Range quality 99.9 %
Test CRC 771585D7
Copy CRC 771585D7
Copy OK
No errors occurred
End of status report
 
Об исполнителе (группе)
Clarinet [E-flat & B-flat], Bass Clarinet, Soprano Saxophone, Alto Saxophone, Performer [Birdcalls], Viola, Banjo, Cymbal [Cymbals], Other [Wood, Trees, Sand, Land, Water, Air], Music By, Recorded By, Cover, Photography By – Han Bennink, Peter Brötzmann
 
Об альбоме (сборнике)
Recorded in 1977
Remastered in 2005 (with bonus 10 extra trcks)
 
Состав
Han Bennink, Peter Brötzmann
Any questions -> support@pro-jazz.com. По всем вопросам пишите -> support@pro-jazz.com
09:34
139
Нет комментариев. Ваш будет первым!