Вы используете незарегистрированную версию компонента "Вкладки"!

Поиск

(Avant-Garde Jazz, Free Improvisation) The Joel Futterman / Ike Levin Trio with Kash Killion - Live at the Noe Valley Ministry, San Francisco - 2003, FLAC (tracks+.cue), lossless

(Avant-Garde Jazz, Free Improvisation) The Joel Futterman / Ike Levin Trio with Kash Killion - Live at the Noe Valley Ministry, San Francisco - 2003, FLAC (tracks+.cue), lossless
Треклист:
•The Joel Futterman / Ike Levin Trio with Kash Killion - Live at the Noe Valley Ministry, San Francisco•
Жанр: Avant-Garde Jazz, Free Improvisation
Страна-производитель диска: USA
Год издания: 2003
Издатель (лейбл): IML Records
Номер по каталогу: IML 26-005
Аудиокодек: FLAC (*.flac)
Тип рипа: tracks+.cue
Битрейт аудио: lossless
Продолжительность: 01:16:34
Источник (релизер): Рип с диска.
Наличие сканов в содержимом раздачи: да
Треклист:
01. Track 1 [06:21]
02. Track 2 [16:00]
03. Track 3 [15:08]
04. Track 4 [13:59]
05. Track 5 [14:28]
06. Track 6 [10:36]
 
Лог создания рипа
Exact Audio Copy V1.0 beta 3 from 29. August 2011
EAC extraction logfile from 16. February 2013, 21:08
The Joel Futterman/Ike Levin Trio with Kash Killion / Live at the Noe Valley Ministry, San Francisco
Used drive : Optiarc DVD RW AD-5200A Adapter: 0 ID: 0
Read mode : Secure
Utilize accurate stream : Yes
Defeat audio cache : Yes
Make use of C2 pointers : No
Read offset correction : 48
Overread into Lead-In and Lead-Out : No
Fill up missing offset samples with silence : Yes
Delete leading and trailing silent blocks : No
Null samples used in CRC calculations : Yes
Used interface : Native Win32 interface for Win NT & 2000
Gap handling : Appended to previous track
Used output format : User Defined Encoder
Selected bitrate : 128 kBit/s
Quality : High
Add ID3 tag : No
Command line compressor : C:\Program Files\Exact Audio Copy\Flac\flac.exe
Additional command line options : -V -8 -T "Genre=%genre%" -T "Artist=%artist%" -T "Title=%title%" -T "Album=%albumtitle%" -T "Date=%year%" -T "Tracknumber=%tracknr%" -T "Comment=%comment%" %source%
TOC of the extracted CD
Track | Start | Length | Start sector | End sector
---------------------------------------------------------
1 | 0:00.00 | 6:21.27 | 0 | 28601
2 | 6:21.27 | 16:00.12 | 28602 | 100613
3 | 22:21.39 | 15:08.40 | 100614 | 168753
4 | 37:30.04 | 13:59.54 | 168754 | 231732
5 | 51:29.58 | 14:28.21 | 231733 | 296853
6 | 65:58.04 | 10:36.30 | 296854 | 344583
Track 1
Filename G:\2003.The Joel Futterman, Ike Levin Trio with Kash Killion - Live at the Noe Valley Ministry, San Francisco\01. Track 1.wav
Pre-gap length 0:00:02.00
Peak level 74.6 %
Extraction speed 2.6 X
Track quality 100.0 %
Test CRC 0D085403
Copy CRC 0D085403
Track not present in AccurateRip database
Copy OK
Track 2
Filename G:\2003.The Joel Futterman, Ike Levin Trio with Kash Killion - Live at the Noe Valley Ministry, San Francisco\02. Track 2.wav
Peak level 75.1 %
Extraction speed 3.2 X
Track quality 99.9 %
Test CRC 038D3F83
Copy CRC 038D3F83
Track not present in AccurateRip database
Copy OK
Track 3
Filename G:\2003.The Joel Futterman, Ike Levin Trio with Kash Killion - Live at the Noe Valley Ministry, San Francisco\03. Track 3.wav
Peak level 74.6 %
Extraction speed 4.0 X
Track quality 100.0 %
Test CRC 3D58437F
Copy CRC 3D58437F
Track not present in AccurateRip database
Copy OK
Track 4
Filename G:\2003.The Joel Futterman, Ike Levin Trio with Kash Killion - Live at the Noe Valley Ministry, San Francisco\04. Track 4.wav
Pre-gap length 0:00:02.45
Peak level 55.2 %
Extraction speed 4.1 X
Track quality 100.0 %
Test CRC B65A9C76
Copy CRC B65A9C76
Track not present in AccurateRip database
Copy OK
Track 5
Filename G:\2003.The Joel Futterman, Ike Levin Trio with Kash Killion - Live at the Noe Valley Ministry, San Francisco\05. Track 5.wav
Peak level 67.9 %
Extraction speed 4.1 X
Track quality 100.0 %
Test CRC E5494B8D
Copy CRC E5494B8D
Track not present in AccurateRip database
Copy OK
Track 6
Filename G:\2003.The Joel Futterman, Ike Levin Trio with Kash Killion - Live at the Noe Valley Ministry, San Francisco\06. Track 6.wav
Peak level 62.3 %
Extraction speed 4.1 X
Track quality 100.0 %
Test CRC 6976D999
Copy CRC 6976D999
Track not present in AccurateRip database
Copy OK
None of the tracks are present in the AccurateRip database
No errors occurred
End of status report
==== Log checksum A996AC364F28DB215233C14393FC0BFEAEDB477AD4975C8B5AD2C833BE9F5F7C ====
 
Содержание индексной карты (.CUE)
REM GENRE Jazz
REM DATE 2003
REM DISCID 4511F206
REM COMMENT "ExactAudioCopy v1.0b3"
CATALOG 0623498776328
PERFORMER "The Joel Futterman/Ike Levin Trio with Kash Killion"
TITLE "Live at the Noe Valley Ministry, San Francisco"
FILE "01. Track 1.wav" WAVE
TRACK 01 AUDIO
TITLE "Track 1"
PERFORMER "The Joel Futterman/Ike Levin Trio with Kash Killion"
FLAGS DCP
INDEX 01 00:00:00
FILE "02. Track 2.wav" WAVE
TRACK 02 AUDIO
TITLE "Track 2"
PERFORMER "The Joel Futterman/Ike Levin Trio with Kash Killion"
FLAGS DCP
INDEX 01 00:00:00
FILE "03. Track 3.wav" WAVE
TRACK 03 AUDIO
TITLE "Track 3"
PERFORMER "The Joel Futterman/Ike Levin Trio with Kash Killion"
FLAGS DCP
INDEX 01 00:00:00
TRACK 04 AUDIO
TITLE "Track 4"
PERFORMER "The Joel Futterman/Ike Levin Trio with Kash Killion"
FLAGS DCP
INDEX 00 15:05:70
FILE "04. Track 4.wav" WAVE
INDEX 01 00:00:00
FILE "05. Track 5.wav" WAVE
TRACK 05 AUDIO
TITLE "Track 5"
PERFORMER "The Joel Futterman/Ike Levin Trio with Kash Killion"
FLAGS DCP
INDEX 01 00:00:00
FILE "06. Track 6.wav" WAVE
TRACK 06 AUDIO
TITLE "Track 6"
PERFORMER "The Joel Futterman/Ike Levin Trio with Kash Killion"
FLAGS DCP
INDEX 01 00:00:00
 
Состав
Personnel:
Joel Futterman - p
Ike Levin - ts
Kash Killion - b
Any questions -> support@pro-jazz.com. По всем вопросам пишите -> support@pro-jazz.com
09:33
176
Нет комментариев. Ваш будет первым!