Вы используете незарегистрированную версию компонента "Вкладки"!

Поиск

(Avant-Garde,Contemporary,Free Jazz) Paul Dunmall/Paul Rogers/Kevin Norton - Go Forth Duck - 2004, APE (image+.cue), lossless

(Avant-Garde,Contemporary,Free Jazz) Paul Dunmall/Paul Rogers/Kevin Norton - Go Forth Duck - 2004, APE (image+.cue), lossless
Треклист:
Paul Dunmall/Paul Rogers/Kevin Norton - Go Forth Duck
Жанр: Avant-Garde,Contemporary,Free Jazz
Год выпуска диска: 2004
Производитель диска: CIMP Records
Аудио кодек: APE
Тип рипа: image+.cue
Битрейт аудио: lossless
Продолжительность: 66:35
Трэклист:
1. Go Forth Duck Paul Dunmall Octet 36:36
2. Come Back Weirdness Day Paul Dunmall Octet 6:02
3. I Am Not a Van (Ofocals) Paul Dunmall Octet 23:53
Personnel:
Paul Dunmall- soprano & tenor saxophones, Border bagpipes;
Paul Rogers- A.I.L. bass;
Kevin Norton- drums, vibes

Recorded: May 20, 2003, Rossie, NY
Отчет ЕАС:
 
скрытый текст
Exact Audio Copy V0.99 prebeta 4 from 23. January 2008
Отчёт EAC об извлечении, выполненном 11. января 2010, 12:01
Paul Dunmall / Go Forth Duck
Дисковод: Optiarc DVD RW AD-7173A Adapter: 1 ID: 0
Режим чтения : Достоверность
Использование точного потока : Да
Отключение кэша аудио : Да
Использование указателей C2 : Нет
Коррекция смещения при чтении : 48
Способность читать области Lead-in и Lead-out : Нет
Заполнение пропущенных сэмплов тишиной : Да
Удаление блоков с тишиной в начале и конце : Нет
При вычислениях CRC использовались нулевые сэмплы : Да
Интерфейс : Встроенный Win32-интерфейс для Win NT/2000
Выходной формат : Внутренние WAV-операции
Формат сэмплов : 44.100 Гц; 16 бит; стерео
TOC извлечённого CD
Трек | Старт | Длительность | Начальный сектор | Конечный сектор
---------------------------------------------------------------------
1 | 0:00.00 | 36:36.54 | 0 | 164753
2 | 36:36.54 | 6:02.25 | 164754 | 191928
3 | 42:39.04 | 23:53.45 | 191929 | 299448
Характеристики диапазона извлечения и сообщения об ошибках
Выбранный диапазон
Имя файла C:\APE Jazz\Paul Dunmall - Go Forth Duck\Paul Dunmall - Go Forth Duck\Paul Dunmall - Go Forth Duck.wav
Пиковый уровень 100.0 %
Качество диапазона 100.0 %
CRC копии 1EE32593
Копирование... OK
Ошибок не произошло
Конец отчёта
Any questions -> support@pro-jazz.com. По всем вопросам пишите -> support@pro-jazz.com
18:12
125
Нет комментариев. Ваш будет первым!