Вы используете незарегистрированную версию компонента "Вкладки"!

Поиск

(Free Improvisation / Avant-Garde) Tyshawn Sorey - Koan - 2009, FLAC (tracks+.cue), lossless

(Free Improvisation / Avant-Garde) Tyshawn Sorey - Koan - 2009, FLAC (tracks+.cue), lossless
Треклист:
Tyshawn Sorey - Koan
Жанр: Free Improvisation / Avant-Garde
Год выпуска : 2009
Лейбл: 482 Music
Аудио кодек: FLAC
Тип рипа: tracks+.cue
Битрейт аудио: lossless
Продолжительность: 01:00:48
Рип: Leaozinho - What CD


01. Awakening (12:46)
02. Only One Sky (2:32)
03. Correct Truth (7:58)
04. Nocturnal (15:16)
05. Two Guitars (9:20)
06. Embed (12:56)

 
XLD
X Lossless Decoder version 20091129 (114.3)
XLD extraction logfile from 2010-01-10 18:20:24 -0500
Tyshawn Sorey / Koan
Used drive : HL-DT-ST DVDRW GS23N (revision SB00)
Use cdparanoia mode : YES (CDParanoia III 10.2 engine)
Disable audio cache : OK for the drive with cache less than 2750KB
Make use of C2 pointers : NO
Read offset correction : 667
Max retry count : 100
TOC of the extracted CD
Track | Start | Length | Start sector | End sector
---------------------------------------------------------
1 | 00:00:00 | 12:45:53 | 0 | 57427
2 | 12:45:53 | 02:31:57 | 57428 | 68809
3 | 15:17:35 | 07:58:13 | 68810 | 104672
4 | 23:15:48 | 15:15:62 | 104673 | 173359
5 | 38:31:35 | 09:20:16 | 173360 | 215375
6 | 47:51:51 | 12:56:37 | 215376 | 273612
Track 01
Filename : /Users/henrymason/Desktop/Tyshawn Sorey - Koan (FLAC)/01 Tyshawn Sorey - Awakening.flac
CRC32 hash (test run) : 1902A3E7
CRC32 hash : 1902A3E7
CRC32 hash (skip zero) : B98D1154
AccurateRip signature : 851E13C6
->Accurately ripped! (confidence 1)
Statistics
Read error : 0
Skipped (treated as error) : 0
Edge jitter error (maybe fixed) : 0
Atom jitter error (maybe fixed) : 0
Drift error (maybe fixed) : 0
Dropped bytes error (maybe fixed) : 0
Duplicated bytes error (maybe fixed) : 0
Track 02
Filename : /Users/henrymason/Desktop/Tyshawn Sorey - Koan (FLAC)/02 Tyshawn Sorey - Only One Sky.flac
CRC32 hash (test run) : DF120633
CRC32 hash : DF120633
CRC32 hash (skip zero) : 84829EC9
AccurateRip signature : EE6A9AB6
->Accurately ripped! (confidence 1)
Statistics
Read error : 0
Skipped (treated as error) : 0
Edge jitter error (maybe fixed) : 0
Atom jitter error (maybe fixed) : 0
Drift error (maybe fixed) : 0
Dropped bytes error (maybe fixed) : 0
Duplicated bytes error (maybe fixed) : 0
Track 03
Filename : /Users/henrymason/Desktop/Tyshawn Sorey - Koan (FLAC)/03 Tyshawn Sorey - Correct Truth.flac
CRC32 hash (test run) : 948A6D02
CRC32 hash : 948A6D02
CRC32 hash (skip zero) : 63D10D14
AccurateRip signature : 8CD7BA4E
->Accurately ripped! (confidence 1)
Statistics
Read error : 0
Skipped (treated as error) : 0
Edge jitter error (maybe fixed) : 0
Atom jitter error (maybe fixed) : 0
Drift error (maybe fixed) : 0
Dropped bytes error (maybe fixed) : 0
Duplicated bytes error (maybe fixed) : 0
Track 04
Filename : /Users/henrymason/Desktop/Tyshawn Sorey - Koan (FLAC)/04 Tyshawn Sorey - Nocturnal.flac
CRC32 hash (test run) : 3654B933
CRC32 hash : 3654B933
CRC32 hash (skip zero) : 508B920A
AccurateRip signature : B826107A
->Accurately ripped! (confidence 1)
Statistics
Read error : 0
Skipped (treated as error) : 0
Edge jitter error (maybe fixed) : 0
Atom jitter error (maybe fixed) : 0
Drift error (maybe fixed) : 0
Dropped bytes error (maybe fixed) : 0
Duplicated bytes error (maybe fixed) : 0
Track 05
Filename : /Users/henrymason/Desktop/Tyshawn Sorey - Koan (FLAC)/05 Tyshawn Sorey - Two Guitars.flac
CRC32 hash (test run) : A3355F27
CRC32 hash : A3355F27
CRC32 hash (skip zero) : 6E1D0D0F
AccurateRip signature : 3DFD2DF9
->Accurately ripped! (confidence 1)
Statistics
Read error : 0
Skipped (treated as error) : 0
Edge jitter error (maybe fixed) : 0
Atom jitter error (maybe fixed) : 0
Drift error (maybe fixed) : 0
Dropped bytes error (maybe fixed) : 0
Duplicated bytes error (maybe fixed) : 0
Track 06
Filename : /Users/henrymason/Desktop/Tyshawn Sorey - Koan (FLAC)/06 Tyshawn Sorey - Embed.flac
CRC32 hash (test run) : 69AFB827
CRC32 hash : 69AFB827
CRC32 hash (skip zero) : 9A377FC4
AccurateRip signature : C6F72606
->Accurately ripped! (confidence 1)
Statistics
Read error : 0
Skipped (treated as error) : 0
Edge jitter error (maybe fixed) : 0
Atom jitter error (maybe fixed) : 0
Drift error (maybe fixed) : 0
Dropped bytes error (maybe fixed) : 0
Duplicated bytes error (maybe fixed) : 0
No errors occurred
End of status report
 
CUE
PERFORMER "Tyshawn Sorey"
TITLE "Koan"
REM GENRE "Jazz"
REM DATE 2009
FILE "01 - Awakening.wav" WAVE
TRACK 01 AUDIO
TITLE "Awakening"
INDEX 01 00:00:00
FILE "02 - Only One Sky.wav" WAVE
TRACK 02 AUDIO
TITLE "Only One Sky"
INDEX 01 00:00:00
FILE "03 - Correct Truth.wav" WAVE
TRACK 03 AUDIO
TITLE "Correct Truth"
INDEX 01 00:00:00
FILE "04 - Nocturnal.wav" WAVE
TRACK 04 AUDIO
TITLE "Nocturnal"
INDEX 01 00:00:00
FILE "05 - Two Guitars.wav" WAVE
TRACK 05 AUDIO
TITLE "Two Guitars"
INDEX 01 00:00:00
FILE "06 - Embed.wav" WAVE
TRACK 06 AUDIO
TITLE "Embed"
INDEX 01 00:00:00
 
Audiochecker
Started at: понедельник, 11. 01. 2010. - 11:21.29
6 files found
1 -===- C:\Downloads\Music\Джаз\Tyshawn Sorey - Koan - 2009\01 - Awakening.flac
Extracted successfully
Conclusion: This track looks like CDDA with probability 100%
Tempfile successfully deleted.
2 -===- C:\Downloads\Music\Джаз\Tyshawn Sorey - Koan - 2009\02 - Only One Sky.flac
Extracted successfully
Conclusion: This track looks like CDDA with probability 100%
Tempfile successfully deleted.
3 -===- C:\Downloads\Music\Джаз\Tyshawn Sorey - Koan - 2009\03 - Correct Truth.flac
Extracted successfully
Conclusion: This track looks like CDDA with probability 100%
Tempfile successfully deleted.
4 -===- C:\Downloads\Music\Джаз\Tyshawn Sorey - Koan - 2009\04 - Nocturnal.flac
Extracted successfully
Conclusion: This track looks like CDDA with probability 99%
Tempfile successfully deleted.
5 -===- C:\Downloads\Music\Джаз\Tyshawn Sorey - Koan - 2009\05 - Two Guitars.flac
Extracted successfully
Conclusion: This track looks like CDDA with probability 100%
Tempfile successfully deleted.
6 -===- C:\Downloads\Music\Джаз\Tyshawn Sorey - Koan - 2009\06 - Embed.flac
Extracted successfully
Conclusion: This track looks like CDDA with probability 100%
Tempfile successfully deleted.
Finished at: понедельник, 11. 01. 2010. - 11:33.52 (operation time: 0:12.22)

Thomas Morgan (classical guitar and bass),
Todd Neufeld (electric and classical guitars),
Tyshawn Sorey (drums).
"Top Ten Jazz albums 2009" - NPR Music
По всем вопросам пишите личное сообщение пользователю M0p94ok.
18:12
169
Нет комментариев. Ваш будет первым!