Вы используете незарегистрированную версию компонента "Вкладки"!

Поиск

(Avant-Garde,Contemporary,Free Jazz) Paul Dunmall Octet - Bebop Starburst - 1999, APE (image+.cue), lossless

(Avant-Garde,Contemporary,Free Jazz) Paul Dunmall Octet - Bebop Starburst - 1999, APE (image+.cue), lossless
Треклист:
Paul Dunmall Octet - Bebop Starburst
Жанр: Avant-Garde,Contemporary,Free Jazz
Год выпуска диска: 1999
Производитель диска: Cuneiform
Аудио кодек: APE
Тип рипа: image+.cue
Битрейт аудио: lossless
Продолжительность: 52:36
Трэклист:
Bebop Starburst (Pt. 1) (:50)
Bebop Starburst (Pt. 2) (7:25)
Bebop Starburst (Pt. 3) (20:34)
Bebop Starburst (Pt. 4) (21:12)
Bebop Starburst, Pt. V (2:35)
Personnel:
Paul Dunmall (tenor sax);
Simon Picard (tenor sax);
Annie Whitehead (trombone);
Chris Bridges (trombone);
Gethin Liddington (trumpet);
Keith Tippett (piano);
Paul Rogers (bass);
Tony Levin (drums)
Отчет ЕАС:
 
скрытый текст
Exact Audio Copy V0.99 prebeta 4 from 23. January 2008
Отчёт EAC об извлечении, выполненном 11. января 2010, 11:20
Paul Dunmall Octet / Bebop Starburst
Дисковод: Optiarc DVD RW AD-7173A Adapter: 1 ID: 0
Режим чтения : Достоверность
Использование точного потока : Да
Отключение кэша аудио : Да
Использование указателей C2 : Нет
Коррекция смещения при чтении : 48
Способность читать области Lead-in и Lead-out : Нет
Заполнение пропущенных сэмплов тишиной : Да
Удаление блоков с тишиной в начале и конце : Нет
При вычислениях CRC использовались нулевые сэмплы : Да
Интерфейс : Встроенный Win32-интерфейс для Win NT/2000
Выходной формат : Внутренние WAV-операции
Формат сэмплов : 44.100 Гц; 16 бит; стерео
TOC извлечённого CD
Трек | Старт | Длительность | Начальный сектор | Конечный сектор
---------------------------------------------------------------------
1 | 0:00.00 | 0:50.10 | 0 | 3759
2 | 0:50.10 | 7:25.65 | 3760 | 37199
3 | 8:16.00 | 20:34.00 | 37200 | 129749
4 | 28:50.00 | 21:12.00 | 129750 | 225149
5 | 50:02.00 | 2:37.07 | 225150 | 236931
Характеристики диапазона извлечения и сообщения об ошибках
Выбранный диапазон
Имя файла C:\APE Jazz\Paul Dunmall-Bebop Starburst\Paul Dunmall Octet - Bebop Starburst.wav
Пиковый уровень 100.0 %
Качество диапазона 100.0 %
CRC копии 31C5ECF6
Копирование... OK
Ошибок не произошло
Конец отчёта
По всем вопросам пишите личное сообщение пользователю M0p94ok.
18:11
148
Нет комментариев. Ваш будет первым!