Вы используете незарегистрированную версию компонента "Вкладки"!

Поиск

( avant-garde) [CD] Tom Rainey Trio - Camino Cielo Echo (2012), FLAC (tracks+.cue), lossless

( avant-garde) [CD] Tom Rainey Trio - Camino Cielo Echo (2012), FLAC (tracks+.cue), lossless
Треклист:


Tom Rainey Trio - Camino Cielo Echo (2012)

Жанр: avant-garde
Год выпуска: 2012
Издатель (лейбл): Intakt CD 199
Формат: FLAC (tracks+.cue)
Битрейт аудио: lossless
Продолжительность 1`10`56
Источник: what.cd, dtromp
Drums – Tom Rainey
Guitar – Mary Halvorson
Saxophone [Saxophones] – Ingrid Laubrock

tracks
01 Expectation of Exception 6:46
02 Mullet Toss 6:15
03 Mr and Mrs Mundane 4:37
04 Corporal Fusion 3:44
05 Arroyo Burrow 6:28
06 Strada Senza Nome 4:23
07 A Third Line Into Little Miss Strange 7:06
08 Leapfrog 3:51
09 Camino Cielo Echo 5:26
10 Fluster 5:10
11 Mental Stencil 7:49
12 Two Words 4:49
13 June 4:24
Total Tracks: 13 Total Length: 70:48


 
.log
Exact Audio Copy V1.0 beta 3 from 29. August 2011
EAC extraction logfile from 27. August 2013, 10:11
Tom Rainey Trio / Camino Cielo Echo
Used drive : PLEXTOR DVDR PX-860A Adapter: 0 ID: 0
Read mode : Secure
Utilize accurate stream : Yes
Defeat audio cache : Yes
Make use of C2 pointers : No
Read offset correction : 96
Overread into Lead-In and Lead-Out : No
Fill up missing offset samples with silence : Yes
Delete leading and trailing silent blocks : No
Null samples used in CRC calculations : Yes
Used interface : Native Win32 interface for Win NT & 2000
Gap handling : Appended to previous track
Used output format : User Defined Encoder
Selected bitrate : 1024 kBit/s
Quality : High
Add ID3 tag : No
Command line compressor : C:\Program Files\Exact Audio Copy\Flac\flac.exe
Additional command line options : -8 -V -T "ARTIST=%artist%" -T "TITLE=%title%" -T "ALBUM=%albumtitle%" -T "DATE=%year%" -T "TRACKNUMBER=%tracknr%" -T "TOTALTRACKS=%numtracks%" -T "GENRE=%genre%" -T "ALBUMARTIST=%albumartist%" -T "ALBUM ARTIST=%albumartist%" -T "COMMENT=EAC Secure Mode, Test & Copy, AccurateRip, FLAC -8" %source%
TOC of the extracted CD
Track | Start | Length | Start sector | End sector
---------------------------------------------------------
1 | 0:00.00 | 6:46.36 | 0 | 30485
2 | 6:46.36 | 6:15.39 | 30486 | 58649
3 | 13:02.00 | 4:37.39 | 58650 | 79463
4 | 17:39.39 | 3:44.56 | 79464 | 96319
5 | 21:24.20 | 6:28.64 | 96320 | 125483
6 | 27:53.09 | 4:23.69 | 125484 | 145277
7 | 32:17.03 | 7:06.51 | 145278 | 177278
8 | 39:23.54 | 3:51.33 | 177279 | 194636
9 | 43:15.12 | 5:26.74 | 194637 | 219160
10 | 48:42.11 | 5:10.65 | 219161 | 242475
11 | 53:53.01 | 7:49.30 | 242476 | 277680
12 | 61:42.31 | 4:49.16 | 277681 | 299371
13 | 66:31.47 | 4:24.30 | 299372 | 319201
Track 1
Filename O:\DL\Tom Rainey Trio - Camino Cielo Echo (2012) [FLAC]\01 - Expectation Of Exception.wav
Pre-gap length 0:00:02.00
Peak level 99.1 %
Extraction speed 4.6 X
Track quality 100.0 %
Test CRC 841A11C2
Copy CRC 841A11C2
Accurately ripped (confidence 2) [B013F966] (AR v2)
Copy OK
Track 2
Filename O:\DL\Tom Rainey Trio - Camino Cielo Echo (2012) [FLAC]\02 - Mullet Toss.wav
Peak level 99.8 %
Extraction speed 5.3 X
Track quality 100.0 %
Test CRC EE2CF84C
Copy CRC EE2CF84C
Accurately ripped (confidence 2) [79DE1326] (AR v2)
Copy OK
Track 3
Filename O:\DL\Tom Rainey Trio - Camino Cielo Echo (2012) [FLAC]\03 - Mr And Mrs Mundane.wav
Peak level 99.1 %
Extraction speed 5.1 X
Track quality 99.9 %
Test CRC F5C7366B
Copy CRC F5C7366B
Accurately ripped (confidence 2) [E79DFC15] (AR v2)
Copy OK
Track 4
Filename O:\DL\Tom Rainey Trio - Camino Cielo Echo (2012) [FLAC]\04 - Corporol Fusion.wav
Peak level 99.4 %
Extraction speed 5.1 X
Track quality 99.9 %
Test CRC 59FC452F
Copy CRC 59FC452F
Accurately ripped (confidence 2) [8B382253] (AR v2)
Copy OK
Track 5
Filename O:\DL\Tom Rainey Trio - Camino Cielo Echo (2012) [FLAC]\05 - Arroyo Burrow.wav
Peak level 99.0 %
Extraction speed 6.4 X
Track quality 100.0 %
Test CRC 1844D0BD
Copy CRC 1844D0BD
Accurately ripped (confidence 2) [289DC707] (AR v2)
Copy OK
Track 6
Filename O:\DL\Tom Rainey Trio - Camino Cielo Echo (2012) [FLAC]\06 - Strada Senza Nome.wav
Peak level 98.7 %
Extraction speed 5.6 X
Track quality 99.9 %
Test CRC BEDF937B
Copy CRC BEDF937B
Accurately ripped (confidence 2) [FBC7AB81] (AR v2)
Copy OK
Track 7
Filename O:\DL\Tom Rainey Trio - Camino Cielo Echo (2012) [FLAC]\07 - A Third Line Into Little Miss Strange.wav
Peak level 99.6 %
Extraction speed 7.2 X
Track quality 100.0 %
Test CRC 6DB77A99
Copy CRC 6DB77A99
Accurately ripped (confidence 2) [E36F6A18] (AR v2)
Copy OK
Track 8
Filename O:\DL\Tom Rainey Trio - Camino Cielo Echo (2012) [FLAC]\08 - Leapfrog.wav
Peak level 100.0 %
Extraction speed 7.0 X
Track quality 100.0 %
Test CRC 01A0079D
Copy CRC 01A0079D
Accurately ripped (confidence 2) [67FA9CB2] (AR v2)
Copy OK
Track 9
Filename O:\DL\Tom Rainey Trio - Camino Cielo Echo (2012) [FLAC]\09 - Camino Cielo Echo.wav
Peak level 98.8 %
Extraction speed 6.4 X
Track quality 99.9 %
Test CRC 6AB37510
Copy CRC 6AB37510
Accurately ripped (confidence 2) [47646DDD] (AR v2)
Copy OK
Track 10
Filename O:\DL\Tom Rainey Trio - Camino Cielo Echo (2012) [FLAC]\10 - Fluster.wav
Peak level 99.6 %
Extraction speed 7.6 X
Track quality 100.0 %
Test CRC 1C069BA7
Copy CRC 1C069BA7
Accurately ripped (confidence 2) [6C5B9B3F] (AR v2)
Copy OK
Track 11
Filename O:\DL\Tom Rainey Trio - Camino Cielo Echo (2012) [FLAC]\11 - Mental Stencil.wav
Peak level 99.1 %
Extraction speed 8.2 X
Track quality 100.0 %
Test CRC 6377DAAA
Copy CRC 6377DAAA
Accurately ripped (confidence 2) [E3FB5B76] (AR v2)
Copy OK
Track 12
Filename O:\DL\Tom Rainey Trio - Camino Cielo Echo (2012) [FLAC]\12 - Two Words.wav
Peak level 99.4 %
Extraction speed 8.1 X
Track quality 100.0 %
Test CRC A075A980
Copy CRC A075A980
Accurately ripped (confidence 2) [C82830ED] (AR v2)
Copy OK
Track 13
Filename O:\DL\Tom Rainey Trio - Camino Cielo Echo (2012) [FLAC]\13 - June.wav
Peak level 80.0 %
Extraction speed 8.2 X
Track quality 100.0 %
Test CRC 6D653F78
Copy CRC 6D653F78
Accurately ripped (confidence 2) [3EAADDC1] (AR v2)
Copy OK
All tracks accurately ripped
No errors occurred
End of status report
---- CUETools DB Plugin V2.1.3
[CTDB TOCID: dKASlQ5R2gV2RaxeLsd4Kacl_.Q-] disk not present in database, Submit result: dKASlQ5R2gV2RaxeLsd4Kacl_.Q- has been uploaded
==== Log checksum 2DF61A8418A1C43F2C2C7599271EF1E51749A87F0140BD878707B0BFE5DC4899 ====
 
.cue
REM GENRE Jazz
REM DATE 2012
REM DISCID CE10A00D
REM COMMENT "ExactAudioCopy v1.0b3"
PERFORMER "Tom Rainey Trio"
TITLE "Camino Cielo Echo"
FILE "01 - Expectation Of Exception.wav" WAVE
TRACK 01 AUDIO
TITLE "Expectation Of Exception"
PERFORMER "Tom Rainey Trio"
INDEX 01 00:00:00
FILE "02 - Mullet Toss.wav" WAVE
TRACK 02 AUDIO
TITLE "Mullet Toss"
PERFORMER "Tom Rainey Trio"
INDEX 01 00:00:00
FILE "03 - Mr And Mrs Mundane.wav" WAVE
TRACK 03 AUDIO
TITLE "Mr And Mrs Mundane"
PERFORMER "Tom Rainey Trio"
INDEX 01 00:00:00
FILE "04 - Corporol Fusion.wav" WAVE
TRACK 04 AUDIO
TITLE "Corporol Fusion"
PERFORMER "Tom Rainey Trio"
INDEX 01 00:00:00
FILE "05 - Arroyo Burrow.wav" WAVE
TRACK 05 AUDIO
TITLE "Arroyo Burrow"
PERFORMER "Tom Rainey Trio"
INDEX 01 00:00:00
FILE "06 - Strada Senza Nome.wav" WAVE
TRACK 06 AUDIO
TITLE "Strada Senza Nome"
PERFORMER "Tom Rainey Trio"
INDEX 01 00:00:00
FILE "07 - A Third Line Into Little Miss Strange.wav" WAVE
TRACK 07 AUDIO
TITLE "A Third Line Into Little Miss Strange"
PERFORMER "Tom Rainey Trio"
INDEX 01 00:00:00
FILE "08 - Leapfrog.wav" WAVE
TRACK 08 AUDIO
TITLE "Leapfrog"
PERFORMER "Tom Rainey Trio"
INDEX 01 00:00:00
FILE "09 - Camino Cielo Echo.wav" WAVE
TRACK 09 AUDIO
TITLE "Camino Cielo Echo"
PERFORMER "Tom Rainey Trio"
INDEX 01 00:00:00
FILE "10 - Fluster.wav" WAVE
TRACK 10 AUDIO
TITLE "Fluster"
PERFORMER "Tom Rainey Trio"
INDEX 01 00:00:00
FILE "11 - Mental Stencil.wav" WAVE
TRACK 11 AUDIO
TITLE "Mental Stencil"
PERFORMER "Tom Rainey Trio"
INDEX 01 00:00:00
FILE "12 - Two Words.wav" WAVE
TRACK 12 AUDIO
TITLE "Two Words"
PERFORMER "Tom Rainey Trio"
INDEX 01 00:00:00
FILE "13 - June.wav" WAVE
TRACK 13 AUDIO
TITLE "June"
PERFORMER "Tom Rainey Trio"
INDEX 01 00:00:00
 
.accurip
[CUETools log; Date: 18/01/14 09:49:40; Version: 2.1.4]
[CTDB TOCID: dKASlQ5R2gV2RaxeLsd4Kacl_.Q-] found.
Track | CTDB Status
1 | (1/1) Accurately ripped
2 | (1/1) Accurately ripped
3 | (1/1) Accurately ripped
4 | (1/1) Accurately ripped
5 | (1/1) Accurately ripped
6 | (1/1) Accurately ripped
7 | (1/1) Accurately ripped
8 | (1/1) Accurately ripped
9 | (1/1) Accurately ripped
10 | (1/1) Accurately ripped
11 | (1/1) Accurately ripped
12 | (1/1) Accurately ripped
13 | (1/1) Accurately ripped
[AccurateRip ID: 00229192-0157bf84-ce10a00d] found.
Track [ CRC | V2 ] Status
01 [5d04709d|b013f966] (0+3/3) Accurately ripped
02 [8e1cace4|79de1326] (0+3/3) Accurately ripped
03 [44d03a31|e79dfc15] (0+3/3) Accurately ripped
04 [0bb1e284|8b382253] (0+3/3) Accurately ripped
05 [affd71cf|289dc707] (0+3/3) Accurately ripped
06 [09945a3a|fbc7ab81] (0+3/3) Accurately ripped
07 [ee9d5db8|e36f6a18] (0+3/3) Accurately ripped
08 [b74286b7|67fa9cb2] (0+3/3) Accurately ripped
09 [b9c3570a|47646ddd] (0+3/3) Accurately ripped
10 [861cdab8|6c5b9b3f] (0+3/3) Accurately ripped
11 [ed87103a|e3fb5b76] (0+3/3) Accurately ripped
12 [b73dc9cd|c82830ed] (0+3/3) Accurately ripped
13 [9470a615|3eaaddc1] (0+3/3) Accurately ripped
Track Peak [ CRC32 ] [W/O NULL] [ LOG ]
-- 100.0 [DC6A6570] [2579C29E]
01 99.1 [841A11C2] [0D72C9AC] CRC32
02 99.8 [EE2CF84C] [B99D80EA] CRC32
03 99.1 [F5C7366B] [542F950F] CRC32
04 99.4 [59FC452F] [0B7BA79C] CRC32
05 99.0 [1844D0BD] [A79507D9] CRC32
06 98.7 [BEDF937B] [C4B660B3] CRC32
07 99.6 [6DB77A99] [5C977C84] CRC32
08 100.0 [01A0079D] [8F832930] CRC32
09 98.8 [6AB37510] [DF4D38CD] CRC32
10 99.6 [1C069BA7] [984E2D55] CRC32
11 99.1 [6377DAAA] [2D278524] CRC32
12 99.4 [A075A980] [A9ED8158] CRC32
13 80.0 [6D653F78] [42B44039] CRC32

другие релизы
По всем вопросам пишите личное сообщение пользователю M0p94ok.
22:30
163
Нет комментариев. Ваш будет первым!