Вы используете незарегистрированную версию компонента "Вкладки"!

Поиск

(Free Jazz, Big Band) [CD] Rake-Star - Some Ra (Sun Ra Tribute) - 2004, FLAC (tracks+.cue), lossless

(Free Jazz, Big Band) [CD] Rake-Star - Some Ra (Sun Ra Tribute) - 2004, FLAC (tracks+.cue), lossless
Треклист:
Rake-Star / Some Ra (Sun Ra Tribute)
Жанр: Free Jazz, Big Band
Носитель: CD
Страна-производитель диска: Canada
Год издания: 2004
Издатель (лейбл): Spool
Номер по каталогу: SPL 123 / Line 23
Страна: Canada
Аудиокодек: FLAC (*.flac)
Тип рипа: tracks+.cue
Битрейт аудио: lossless
Продолжительность: 63:48
Источник (релизер): свой фирменный диск
Наличие сканов в содержимом раздачи:
Треклист:
1. Space Is Still The Place, Pt. III 4:36
2. Somewhere In Space / Angels And Demons At Play 11:50
3. Ankh / Spectrum 8:25
4. And Of Six 4:17
5. I Dream Too Much 6:11
6. Cobalt / Satellites Are Spinning 5:05
7. Discipline 33 5:29
8. Journey To Rakestar / Love In Outerspace 7:09
9. Don't Do / We Travel The Spaceways 10:21
 
Лог создания рипа
Exact Audio Copy V1.0 beta 3 from 29. August 2011
EAC extraction logfile from 2. January 2014, 21:19
Rake-Star / Some Ra
Used drive : PIONEER DVD-RW DVR-115D Adapter: 0 ID: 0
Read mode : Secure
Utilize accurate stream : Yes
Defeat audio cache : Yes
Make use of C2 pointers : No
Read offset correction : 48
Overread into Lead-In and Lead-Out : No
Fill up missing offset samples with silence : Yes
Delete leading and trailing silent blocks : No
Null samples used in CRC calculations : Yes
Used interface : Installed external ASPI interface
Gap handling : Appended to previous track
Used output format : User Defined Encoder
Selected bitrate : 896 kBit/s
Quality : High
Add ID3 tag : No
Command line compressor : C:\Program Files\Exact Audio Copy\FLAC\FLAC.EXE
Additional command line options : -6 -V -T "ARTIST=%artist%" -T "TITLE=%title%" -T "ALBUM=%albumtitle%" -T "DATE=%year%" -T "TRACKNUMBER=%tracknr%" -T "GENRE=%genre%" -T "COMMENT=%comment%" -T "BAND=%albuminterpret%" -T "COMPOSER=%composer%" %haslyrics%--tag-from-file=LYRICS="%lyricsfile%"%haslyrics% -T "DISCNUMBER=%cdnumber%" -T "TOTALDISCS=%totalcds%" -T "TOTALTRACKS=%numtracks%" %hascover%--picture="%coverfile%"%hascover% %source% -o %dest%
TOC of the extracted CD
Track | Start | Length | Start sector | End sector
---------------------------------------------------------
1 | 0:00.00 | 4:41.21 | 0 | 21095
2 | 4:41.21 | 11:55.61 | 21096 | 74781
3 | 16:37.07 | 8:30.23 | 74782 | 113054
4 | 25:07.30 | 4:19.05 | 113055 | 132484
5 | 29:26.35 | 6:11.41 | 132485 | 160350
6 | 35:38.01 | 5:06.04 | 160351 | 183304
7 | 40:44.05 | 5:31.34 | 183305 | 208163
8 | 46:15.39 | 7:11.54 | 208164 | 240542
9 | 53:27.18 | 10:21.20 | 240543 | 287137
Track 1
Filename D:\zzz\01 - Space Is Still The Place Pt. III.wav
Pre-gap length 0:00:02.00
Peak level 84.4 %
Extraction speed 4.7 X
Track quality 100.0 %
Test CRC E6CEC187
Copy CRC E6CEC187
Track not present in AccurateRip database
Copy OK
Track 2
Filename D:\zzz\02 - Somewhere In Space , Angels And Demons At Play.wav
Pre-gap length 0:00:05.00
Peak level 98.8 %
Extraction speed 5.8 X
Track quality 99.9 %
Test CRC AC6EC86C
Copy CRC AC6EC86C
Track not present in AccurateRip database
Copy OK
Track 3
Filename D:\zzz\03 - Ankh , Spectrum.wav
Pre-gap length 0:00:05.00
Peak level 98.8 %
Extraction speed 6.5 X
Track quality 99.9 %
Test CRC F5F2B101
Copy CRC F5F2B101
Track not present in AccurateRip database
Copy OK
Track 4
Filename D:\zzz\04 - And Of Six.wav
Pre-gap length 0:00:05.00
Peak level 78.5 %
Extraction speed 6.9 X
Track quality 100.0 %
Test CRC 176CC5A4
Copy CRC 176CC5A4
Track not present in AccurateRip database
Copy OK
Track 5
Filename D:\zzz\05 - I Dream Too Much.wav
Pre-gap length 0:00:02.00
Peak level 98.8 %
Extraction speed 7.5 X
Track quality 100.0 %
Test CRC 1E87CB44
Copy CRC 1E87CB44
Track not present in AccurateRip database
Copy OK
Track 6
Filename D:\zzz\06 - Cobalt , Satellites Are Spinning.wav
Peak level 98.8 %
Extraction speed 7.0 X
Track quality 99.9 %
Test CRC CBF3FDBD
Copy CRC CBF3FDBD
Track not present in AccurateRip database
Copy OK
Track 7
Filename D:\zzz\07 - Discipline 33.wav
Pre-gap length 0:00:01.00
Peak level 98.8 %
Extraction speed 8.1 X
Track quality 100.0 %
Test CRC 3AB8003F
Copy CRC 3AB8003F
Track not present in AccurateRip database
Copy OK
Track 8
Filename D:\zzz\08 - Journey To Rakestar , Love In Outerspace.wav
Pre-gap length 0:00:02.00
Peak level 98.8 %
Extraction speed 8.7 X
Track quality 100.0 %
Test CRC 2A68E4DB
Copy CRC 2A68E4DB
Track not present in AccurateRip database
Copy OK
Track 9
Filename D:\zzz\09 - Don't Do , We Travel The Spaceways.wav
Pre-gap length 0:00:02.00
Peak level 98.8 %
Extraction speed 9.4 X
Track quality 100.0 %
Test CRC 7CE4EA9B
Copy CRC 7CE4EA9B
Track not present in AccurateRip database
Copy OK
None of the tracks are present in the AccurateRip database
No errors occurred
End of status report
==== Log checksum 8A7923D7B3BD36BE545CD0A8AD0EB878AA3B00EA92D299947B02C51F68F073E1 ====
 
Содержание индексной карты (.CUE)
REM GENRE "Big Band"
REM DATE 2004
REM DISCID 8B0EF409
REM COMMENT "ExactAudioCopy v1.0b3"
PERFORMER "Rake-Star"
TITLE "Some Ra"
FILE "01 - Space Is Still The Place Pt. III.wav" WAVE
TRACK 01 AUDIO
TITLE "Space Is Still The Place Pt. III"
PERFORMER "Rake-Star"
INDEX 01 00:00:00
TRACK 02 AUDIO
TITLE "Somewhere In Space / Angels And Demons At Play"
PERFORMER "Rake-Star"
INDEX 00 04:36:21
FILE "02 - Somewhere In Space , Angels And Demons At Play.wav" WAVE
INDEX 01 00:00:00
TRACK 03 AUDIO
TITLE "Ankh / Spectrum"
PERFORMER "Rake-Star"
INDEX 00 11:50:61
FILE "03 - Ankh , Spectrum.wav" WAVE
INDEX 01 00:00:00
TRACK 04 AUDIO
TITLE "And Of Six"
PERFORMER "Rake-Star"
INDEX 00 08:25:23
FILE "04 - And Of Six.wav" WAVE
INDEX 01 00:00:00
TRACK 05 AUDIO
TITLE "I Dream Too Much"
PERFORMER "Rake-Star"
INDEX 00 04:17:05
FILE "05 - I Dream Too Much.wav" WAVE
INDEX 01 00:00:00
FILE "06 - Cobalt , Satellites Are Spinning.wav" WAVE
TRACK 06 AUDIO
TITLE "Cobalt / Satellites Are Spinning"
PERFORMER "Rake-Star"
INDEX 01 00:00:00
TRACK 07 AUDIO
TITLE "Discipline 33"
PERFORMER "Rake-Star"
INDEX 00 05:05:04
FILE "07 - Discipline 33.wav" WAVE
INDEX 01 00:00:00
TRACK 08 AUDIO
TITLE "Journey To Rakestar / Love In Outerspace"
PERFORMER "Rake-Star"
INDEX 00 05:29:34
FILE "08 - Journey To Rakestar , Love In Outerspace.wav" WAVE
INDEX 01 00:00:00
TRACK 09 AUDIO
TITLE "Don't Do / We Travel The Spaceways"
PERFORMER "Rake-Star"
INDEX 00 07:09:54
FILE "09 - Don't Do , We Travel The Spaceways.wav" WAVE
INDEX 01 00:00:00
 
Лог проверки качества
d:\>d:\aucdtect -d/-m0 d:\zzz\*.wav
auCDtect: CD records authenticity detector, version 0.8.2
Copyright (c) 2004 Oleg Berngardt. All rights reserved.
Copyright (c) 2004 Alexander Djourik. All rights reserved.
------------------------------------------------------------
Processing file: [01. Space Is Still The Place Pt. III.wav]
------------------------------------------------------------
This track looks like CDDA with probability 100%
------------------------------------------------------------
Processing file: [02. Somewhere In Space - Angels And Demons At Play.wav]
------------------------------------------------------------
This track looks like CDDA with probability 100%
------------------------------------------------------------
Processing file: [03. Ankh - Spectrum.wav]
------------------------------------------------------------
This track looks like CDDA with probability 100%
------------------------------------------------------------
Processing file: [04. And Of Six.wav]
------------------------------------------------------------
This track looks like CDDA with probability 99%
------------------------------------------------------------
Processing file: [05. I Dream Too Much.wav]
------------------------------------------------------------
This track looks like CDDA with probability 100%
------------------------------------------------------------
Processing file: [06. Cobalt - Satellites Are Spinning.wav]
------------------------------------------------------------
This track looks like CDDA with probability 100%
------------------------------------------------------------
Processing file: [07. Discipline 33.wav]
------------------------------------------------------------
This track looks like CDDA with probability 100%
------------------------------------------------------------
Processing file: [08. Journey To Rakestar - Love In Outerspace.wav]
------------------------------------------------------------
This track looks like CDDA with probability 100%
------------------------------------------------------------
Processing file: [09. Don't Do - We Travel The Spaceways.wav]
------------------------------------------------------------
This track looks like CDDA with probability 99%
------------------------------------------------------------
Final Conclusion:
------------------------------------------------------------
These tracks looks like CDDA with probability 100%
Доп. информация:
 
Album Info & AMG Review
All compositions Sun Ra except:
1. (P. Newman)
4,8i,9i. (Magill)
5. (Kern/Fields, arr. Frayne)
6i. (Broscoe), 6ii. (arr. Broscoe)
Recorded by Ross Murray & Michel Legault live at the Bayou Blues & Jazz Club, Ottawa, April 6, 2003
Mixed by Ross Murray & Rory Magill
Mastered by Ross Murray
Design John Sekerka
Photos Sandy Foote, Rachel Handley, Juliana Neufeld, John Sekerka
Produced by Ross Murray & Rory Magill
Billed to Rake-Star, this album is in fact the follow-up to Rake's debut CD released by Spool in 2000. And it marks a giant leap forward for the trio. Then again, Some Ra is a special project. Recorded live in Ottawa (Canada) on April 6, 2003, it features a 16-piece big band version of Rake paying tribute to the Sun Ra Arkestra. The group includes a dancer and a singer, and judging from the pictures in the booklet, the event was as colorful and raucous as Sun Ra's genuine concerts. The set list includes plenty of Sun Ra's compositions, alongside original tunes mostly penned by Rake's leader and the mastermind behind this project, trombonist Rory Magill. The group comprises talented musicians, for the most part unknown outside the Ottawa area. The horn line is crowded, so is the double-bass section (three). Other instruments include an accordion, a guitar, and singer Gaby Warren, who delivers a sweet-and-sour rendition of "I Dream Too Much," the disc's weak point. The group sound is thin on percussion, but that doesn't really have an impact on the energy of the music. The group's originals sit very well with Sun Ra's classics, and the arrangements are respectful of the spirit of the Arkestra. Highlights include the medley "Somewhere in Space/Angels and Demons at Play," where trumpeter Clyde Forsberg delivers a Lester Bowie-esque solo, and the medley "Cobalt/Satellites Are Spinning," the first piece being penned by sax player David Broscoe and serving as a delightfully spacy introduction. "Journey to Rakestar/Love in Outer Space" also provides a wonderful moment, thanks to creative arrangements and a good groove. Sound quality is very fine: the ensemble is spread across the stereo spectrum; each instrument is easy to isolate. Fans of Sun Ra should definitely investigate -- this is not just another tribute, it's a pretty fine one, and coming from a little-known jazz scene.
 
Состав
David Broscoe: alto & baritone sax, clarinet
Petr Cancura: tenor sax, clarinet
Clyde Forsberg: trumpet
Rob Frayne: tenor sax, flute, bass clarinet
John Geggie: double bass
Jennifer Giles: button accordion
Jamie Gullikson: drums, suitcase
John Higney: guitar, lap steel
Rory Magill: trombone, drums
Pierre-Yves Martel: double bass
Mark Molnar: cello, violin, effects
Martin Newman: double bass
Paul Newman: tenor sax
Gaby Warren: voice
Shara Weaver: dance
Linsey Wellman: alto sax, flute
По всем вопросам пишите личное сообщение пользователю M0p94ok.
22:30
274
Нет комментариев. Ваш будет первым!