Вы используете незарегистрированную версию компонента "Вкладки"!

Поиск

(Free Jazz, Contemporary Jazz, Free Improvisation) [CD] Keshavan Maslak & Paul Bley - Romance In The Big City - 1993, FLAC (image+.cue), lossless

(Free Jazz, Contemporary Jazz, Free Improvisation) [CD] Keshavan Maslak & Paul Bley - Romance In The Big City - 1993, FLAC (image+.cue), lossless
Треклист:
Keshavan Maslak & Paul Bley / Romance In The Big City
Жанр: Free Jazz, Contemporary Jazz, Free Improvisation
Носитель: CD
Страна-производитель диска: UK
Год издания: 1993
Издатель (лейбл): Leo Records
Номер по каталогу: CD LR 104
Аудиокодек: FLAC (*.flac)
Тип рипа: image+.cue
Битрейт аудио: lossless
Продолжительность: 58:12
Источник (релизер): CD
Наличие сканов в содержимом раздачи: нет
Треклист:
1 Romance In The Big City 5:41
2 Don't Lose Her 4:45
3 Jealous Passion 4:12
4 Someone For You 6:03
5 Tormented Rose 3:14
6 It Happens 5:27
7 Tender Your Eyes 6:06
8 Talk To Me, Baby 2:45
9 Junko's Dream 4:15
10 Bring Me Your Heart 2:39
11 Your Wife As Yourself 7:15
12 Lovely 1:11
13 Nuts 4:34
 
Лог создания рипа
Exact Audio Copy V1.0 beta 2 from 29. April 2011
EAC extraction logfile from 17. January 2014, 17:34
Keshavan Maslak & Paul Bley / Romance in the Big City
Used drive : Optiarc DVD RW AD-7170A Adapter: 0 ID: 0
Read mode : Secure
Utilize accurate stream : Yes
Defeat audio cache : Yes
Make use of C2 pointers : No
Read offset correction : 48
Overread into Lead-In and Lead-Out : No
Fill up missing offset samples with silence : Yes
Delete leading and trailing silent blocks : No
Null samples used in CRC calculations : Yes
Used interface : Native Win32 interface for Win NT & 2000
Used output format : User Defined Encoder
Selected bitrate : 320 kBit/s
Quality : High
Add ID3 tag : No
Command line compressor : C:\Program Files\Exact Audio Copy\Flac\flac.exe
Additional command line options : -V -8 -T "Date=%year%" -T "Genre=%genre%" %source%
TOC of the extracted CD
Track | Start | Length | Start sector | End sector
---------------------------------------------------------
1 | 0:00.00 | 5:41.40 | 0 | 25614
2 | 5:41.40 | 4:45.40 | 25615 | 47029
3 | 10:27.05 | 4:11.55 | 47030 | 65909
4 | 14:38.60 | 6:02.47 | 65910 | 93106
5 | 20:41.32 | 3:16.43 | 93107 | 107849
6 | 23:58.00 | 5:27.50 | 107850 | 132424
7 | 29:25.50 | 6:05.02 | 132425 | 159801
8 | 35:30.52 | 2:47.73 | 159802 | 172399
9 | 38:18.50 | 4:15.00 | 172400 | 191524
10 | 42:33.50 | 2:40.70 | 191525 | 203594
11 | 45:14.45 | 7:12.25 | 203595 | 236019
12 | 52:26.70 | 1:13.57 | 236020 | 241551
13 | 53:40.52 | 4:32.23 | 241552 | 261974
Range status and errors
Selected range
Filename K:\ЕАС\Keshavan Maslak & Paul Bley - Romance in the Big City.wav
Peak level 81.3 %
Extraction speed 2.0 X
Range quality 99.9 %
Test CRC A64282E4
Copy CRC A64282E4
Copy OK
No errors occurred
AccurateRip summary
Track 1 not present in database
Track 2 not present in database
Track 3 not present in database
Track 4 not present in database
Track 5 not present in database
Track 6 not present in database
Track 7 not present in database
Track 8 not present in database
Track 9 not present in database
Track 10 not present in database
Track 11 not present in database
Track 12 not present in database
Track 13 not present in database
None of the tracks are present in the AccurateRip database
End of status report
==== Log checksum E2B533558C53F4B3FACE3390B5159125D4293903E6E33A9D781149D32D7299FE ====
 
Содержание индексной карты (.CUE)
REM GENRE Jazz
REM DATE 1993
REM DISCID 9C0DA50D
REM COMMENT "ExactAudioCopy v1.0b2"
PERFORMER "Keshavan Maslak & Paul Bley"
TITLE "Romance in the Big City"
FILE "Keshavan Maslak & Paul Bley - Romance in the Big City.flac" WAVE
TRACK 01 AUDIO
TITLE "Romance in the Big City"
PERFORMER "Keshavan Maslak & Paul Bley"
INDEX 01 00:00:00
TRACK 02 AUDIO
TITLE "Don't Lose Her"
PERFORMER "Keshavan Maslak & Paul Bley"
INDEX 00 05:39:10
INDEX 01 05:41:40
TRACK 03 AUDIO
TITLE "Jealous Passion"
PERFORMER "Keshavan Maslak & Paul Bley"
INDEX 00 10:25:02
INDEX 01 10:27:05
TRACK 04 AUDIO
TITLE "Someone For You"
PERFORMER "Keshavan Maslak & Paul Bley"
INDEX 00 14:37:37
INDEX 01 14:38:60
TRACK 05 AUDIO
TITLE "Tormented Rose"
PERFORMER "Keshavan Maslak & Paul Bley"
INDEX 01 20:41:32
TRACK 06 AUDIO
TITLE "It Happens"
PERFORMER "Keshavan Maslak & Paul Bley"
INDEX 00 23:56:30
INDEX 01 23:58:00
TRACK 07 AUDIO
TITLE "Tender Your Eyes"
PERFORMER "Keshavan Maslak & Paul Bley"
INDEX 00 29:24:00
INDEX 01 29:25:50
TRACK 08 AUDIO
TITLE "Talk to Me, Baby"
PERFORMER "Keshavan Maslak & Paul Bley"
INDEX 01 35:30:52
TRACK 09 AUDIO
TITLE "Junko's Dream"
PERFORMER "Keshavan Maslak & Paul Bley"
INDEX 00 38:16:40
INDEX 01 38:18:50
TRACK 10 AUDIO
TITLE "Bring me your Heart"
PERFORMER "Keshavan Maslak & Paul Bley"
INDEX 00 42:31:55
INDEX 01 42:33:50
TRACK 11 AUDIO
TITLE "Your Wife As Yourself"
PERFORMER "Keshavan Maslak & Paul Bley"
INDEX 00 45:11:52
INDEX 01 45:14:45
TRACK 12 AUDIO
TITLE "Lovely"
PERFORMER "Keshavan Maslak & Paul Bley"
INDEX 01 52:26:70
TRACK 13 AUDIO
TITLE "Nuts"
PERFORMER "Keshavan Maslak & Paul Bley"
INDEX 00 53:38:35
INDEX 01 53:40:52
Доп. информация: Recorded at Studio Sterling Gold, Ft. Lauderdale, Florida, February 12-13 1993
 
Состав
Alto Saxophone, Tenor Saxophone, Clarinet – Keshavan Maslak
Piano – Paul Bley
По всем вопросам пишите личное сообщение пользователю M0p94ok.
22:29
193
Нет комментариев. Ваш будет первым!