Вы используете незарегистрированную версию компонента "Вкладки"!

Поиск

(Avant-Garde) [CD] Rêve d'éléphant Orchestra (Reve d'elephant Orchestra) - Pourquoi pas un scampi ? - 2010, FLAC (tracks+.cue), lossless

(Avant-Garde) [CD] Rêve d'éléphant Orchestra (Reve d'elephant Orchestra) - Pourquoi pas un scampi ? - 2010, FLAC (tracks+.cue), lossless
Треклист:
Rêve d'éléphant Orchestra / Pourquoi pas un scampi ?
Жанр: Avant-Garde
Носитель: CD
Страна-производитель диска: Belgium
Год издания: 2010
Издатель (лейбл): De Werf
Номер по каталогу: W.E.R.F.090
Аудиокодек: FLAC (*.flac)
Тип рипа: tracks+.cue
Битрейт аудио: lossless
Продолжительность: 53:04
Источник (релизер): я
Наличие сканов в содержимом раздачи: да
Треклист:
1. Idylam’bo (Michel Massot) 6:08
2. Kaai (Pierre Bernard) 6:34
3. Reste, reste dans mon bâteau (Pierre Bernard) 8:33
4. Dromadaire (Michel Massot) 5:28
5. Pourquoi pas un scampi ? (Michel Massot) 2:51
6. Mon éléphant (Pierre Bernard) 7:10
7. Loxodonde (Michel Massot) 4:26
8. O cieco mondo, di lusinghe pieno (Jacopo da Bologna) 3:26
9. Tradewinds (Dave Burrell) 8:28
All arrangements by Rêve d’éléphant Orchestra except #1 (Michel Debrulle & Benoist Eil) and #9.
Recorded at Studio Jet Brussels, October 2010.
Pierre Bernard – Flutes
Michel Debrulle – Drums, Percussion
Benoist Eil – Guitars
Michel Massot – Tubas, Trombone, Voice
Étienne Plumer – Drums, Percussion
Stephan Pougin – Drums, Bodhran, Derbuka, Congas, Percussion
Alain Vankenhove – Trumpet, Electronics
 
Лог создания рипа
Exact Audio Copy V1.0 beta 3 from 29. August 2011
EAC extraction logfile from 28. February 2014, 14:31
Rêve d'éléphant Orchestra / Pourquoi pas un scampi ?
Used drive : SlimtypeeNAU508 5 Adapter: 1 ID: 0
Read mode : Secure
Utilize accurate stream : Yes
Defeat audio cache : Yes
Make use of C2 pointers : No
Read offset correction : 6
Overread into Lead-In and Lead-Out : No
Fill up missing offset samples with silence : Yes
Delete leading and trailing silent blocks : No
Null samples used in CRC calculations : Yes
Used interface : Native Win32 interface for Win NT & 2000
Gap handling : Appended to previous track
Used output format : User Defined Encoder
Selected bitrate : 768 kBit/s
Quality : High
Add ID3 tag : No
Command line compressor : C:\Program Files (x86)\Exact Audio Copy\Flac\flac.exe
Additional command line options : -8 -V -T "ARTIST=%artist%" -T "TITLE=%title%" -T "ALBUM=%albumtitle%" -T "DATE=%year%" -T "TRACKNUMBER=%tracknr%" -T "GENRE=%genre%" -T "PERFORMER=%albuminterpret%" -T "COMPOSER=%composer%" -T "ALBUMARTIST=%albumartist%" -T "DISCNUMBER=%cdnumber%" -T "TOTALDISCS=%totalcds%" -T "TOTALTRACKS=%numtracks%" -T "COMMENT=%comment%" %source% -o %dest%
TOC of the extracted CD
Track | Start | Length | Start sector | End sector
---------------------------------------------------------
1 | 0:00.00 | 6:08.19 | 0 | 27618
2 | 6:08.19 | 6:34.08 | 27619 | 57176
3 | 12:42.27 | 8:32.43 | 57177 | 95619
4 | 21:14.70 | 5:27.63 | 95620 | 120207
5 | 26:42.58 | 2:50.55 | 120208 | 133012
6 | 29:33.38 | 7:09.45 | 133013 | 165232
7 | 36:43.08 | 4:25.53 | 165233 | 185160
8 | 41:08.61 | 3:26.36 | 185161 | 200646
9 | 44:35.22 | 8:28.24 | 200647 | 238770
Track 1
Filename C:\EAC rips\01 - Idylam'bo.wav
Pre-gap length 0:00:02.00
Peak level 98.8 %
Extraction speed 1.1 X
Track quality 100.0 %
Test CRC 06E35D46
Copy CRC 06E35D46
Accurately ripped (confidence 2) [F0D7B11E] (AR v2)
Copy OK
Track 2
Filename C:\EAC rips\02 - Kaai.wav
Peak level 98.8 %
Extraction speed 1.3 X
Track quality 100.0 %
Test CRC 529DC58E
Copy CRC 529DC58E
Accurately ripped (confidence 2) [ADACE193] (AR v2)
Copy OK
Track 3
Filename C:\EAC rips\03 - Reste, reste dans mon bâteau.wav
Peak level 98.8 %
Extraction speed 1.4 X
Track quality 99.9 %
Test CRC A1646A2D
Copy CRC A1646A2D
Accurately ripped (confidence 2) [315B6242] (AR v2)
Copy OK
Track 4
Filename C:\EAC rips\04 - Dromadaire.wav
Peak level 98.8 %
Extraction speed 1.6 X
Track quality 100.0 %
Test CRC 405ABCE2
Copy CRC 405ABCE2
Accurately ripped (confidence 2) [0E6C3FA0] (AR v2)
Copy OK
Track 5
Filename C:\EAC rips\05 - Pourquoi pas un scampi _.wav
Peak level 98.8 %
Extraction speed 1.6 X
Track quality 100.0 %
Test CRC 4F89D887
Copy CRC 4F89D887
Accurately ripped (confidence 2) [D211B3E9] (AR v2)
Copy OK
Track 6
Filename C:\EAC rips\06 - Mon éléphant.wav
Peak level 98.8 %
Extraction speed 1.7 X
Track quality 99.9 %
Test CRC CABEF998
Copy CRC CABEF998
Accurately ripped (confidence 2) [638FEC45] (AR v2)
Copy OK
Track 7
Filename C:\EAC rips\07 - Loxodonde.wav
Peak level 98.8 %
Extraction speed 1.9 X
Track quality 100.0 %
Test CRC DBCEDB21
Copy CRC DBCEDB21
Accurately ripped (confidence 2) [D4E056C4] (AR v2)
Copy OK
Track 8
Filename C:\EAC rips\08 - O cieco mondo, di lusinghe pieno.wav
Peak level 98.8 %
Extraction speed 1.6 X
Track quality 99.9 %
Test CRC 947632B9
Copy CRC 947632B9
Accurately ripped (confidence 2) [CDC596CB] (AR v2)
Copy OK
Track 9
Filename C:\EAC rips\09 - Tradewinds.wav
Peak level 98.8 %
Extraction speed 2.0 X
Track quality 99.9 %
Test CRC C340F36F
Copy CRC C340F36F
Accurately ripped (confidence 2) [00F4917F] (AR v2)
Copy OK
All tracks accurately ripped
No errors occurred
End of status report
---- CUETools DB Plugin V2.1.4
[CTDB TOCID: Ur9i9LbBrFWBa8VM1MT64CbhA4E-] found
Submit result: Ur9i9LbBrFWBa8VM1MT64CbhA4E- has been confirmed
Track | CTDB Status
1 | (2/2) Accurately ripped
2 | (2/2) Accurately ripped
3 | (2/2) Accurately ripped
4 | (2/2) Accurately ripped
5 | (2/2) Accurately ripped
6 | (2/2) Accurately ripped
7 | (2/2) Accurately ripped
8 | (2/2) Accurately ripped
9 | (2/2) Accurately ripped
==== Log checksum 9DDBC4BF459358001653ADF9752C410008F073A94AF95BB1686B476E006E3A8B ====
 
Содержание индексной карты (.CUE)
REM GENRE Jazz
REM DATE 2010
REM DISCID 780C6F09
REM COMMENT "ExactAudioCopy v1.0b3"
PERFORMER "Rêve d'éléphant Orchestra"
TITLE "Pourquoi pas un scampi ?"
FILE "01 - Idylam'bo.wav" WAVE
TRACK 01 AUDIO
TITLE "Idylam'bo"
PERFORMER "Rêve d'éléphant Orchestra"
ISRC BEA951009001
INDEX 01 00:00:00
FILE "02 - Kaai.wav" WAVE
TRACK 02 AUDIO
TITLE "Kaai"
PERFORMER "Rêve d'éléphant Orchestra"
ISRC BEA951009002
INDEX 01 00:00:00
FILE "03 - Reste, reste dans mon bâteau.wav" WAVE
TRACK 03 AUDIO
TITLE "Reste, reste dans mon bâteau"
PERFORMER "Rêve d'éléphant Orchestra"
ISRC BEA951009003
INDEX 01 00:00:00
FILE "04 - Dromadaire.wav" WAVE
TRACK 04 AUDIO
TITLE "Dromadaire"
PERFORMER "Rêve d'éléphant Orchestra"
ISRC BEA951009004
INDEX 01 00:00:00
FILE "05 - Pourquoi pas un scampi _.wav" WAVE
TRACK 05 AUDIO
TITLE "Pourquoi pas un scampi ?"
PERFORMER "Rêve d'éléphant Orchestra"
ISRC BEA951009005
INDEX 01 00:00:00
FILE "06 - Mon éléphant.wav" WAVE
TRACK 06 AUDIO
TITLE "Mon éléphant"
PERFORMER "Rêve d'éléphant Orchestra"
ISRC BEA951009006
INDEX 01 00:00:00
FILE "07 - Loxodonde.wav" WAVE
TRACK 07 AUDIO
TITLE "Loxodonde"
PERFORMER "Rêve d'éléphant Orchestra"
ISRC BEA951009007
INDEX 01 00:00:00
FILE "08 - O cieco mondo, di lusinghe pieno.wav" WAVE
TRACK 08 AUDIO
TITLE "O cieco mondo, di lusinghe pieno"
PERFORMER "Rêve d'éléphant Orchestra"
ISRC BEA951009008
INDEX 01 00:00:00
FILE "09 - Tradewinds.wav" WAVE
TRACK 09 AUDIO
TITLE "Tradewinds"
PERFORMER "Rêve d'éléphant Orchestra"
ISRC BEA951009009
INDEX 01 00:00:00
Any questions -> support@pro-jazz.com. По всем вопросам пишите -> support@pro-jazz.com
23:51
172
Нет комментариев. Ваш будет первым!