Вы используете незарегистрированную версию компонента "Вкладки"!

Поиск

(Avant-Garde Jazz, Modern Creative, Post-Bop) [CD] Emmanuelle Somer - Search For Peace - 2001, FLAC (tracks+.cue), lossless

(Avant-Garde Jazz, Modern Creative, Post-Bop) [CD] Emmanuelle Somer - Search For Peace - 2001, FLAC (tracks+.cue), lossless
Треклист:
♦ Emmanuelle Somer - Search For Peace ♦
Жанр: Avant-Garde Jazz, Modern Creative, Post-Bop
Носитель: CD
Страна-производитель диска: USA
Год издания: 2001
Издатель (лейбл): ES
Номер по каталогу: ES02
Аудиокодек: FLAC (*.flac)
Тип рипа: tracks+.cue
Битрейт аудио: lossless
Продолжительность: 01:03:27
Источник (релизер): Рип с диска.
Наличие сканов в содержимом раздачи: да
Треклист:
01. Danse a Cloche-Pied [11:39]
02. Aurora Borealis [04:54]
03. Search for Peace [07:41]
04. Thanks [06:25]
05. Seduction Dance [01:57]
06. Stoned Tones [10:59]
07. Struggle of an Eclosion [03:00]
08. Duality [01:45]
09. Tree in the Forest [05:31]
10. Union Treaty [09:31]
 
Лог создания рипа
Exact Audio Copy V1.0 beta 3 from 29. August 2011
EAC extraction logfile from 27. February 2014, 15:10
Emmanuelle Somer / Search for Peace
Used drive : ATAPI iHAS124 D Adapter: 1 ID: 0
Read mode : Secure
Utilize accurate stream : Yes
Defeat audio cache : Yes
Make use of C2 pointers : No
Read offset correction : 6
Overread into Lead-In and Lead-Out : No
Fill up missing offset samples with silence : Yes
Delete leading and trailing silent blocks : No
Null samples used in CRC calculations : Yes
Used interface : Native Win32 interface for Win NT & 2000
Gap handling : Appended to previous track
Used output format : User Defined Encoder
Selected bitrate : 128 kBit/s
Quality : High
Add ID3 tag : No
Command line compressor : C:\Program Files (x86)\Exact Audio Copy\Flac\flac.exe
Additional command line options : -V -8 -T "Genre=%genre%" -T "Artist=%artist%" -T "Title=%title%" -T "Album=%albumtitle%" -T "Date=%year%" -T "Tracknumber=%tracknr%" -T "Comment=%comment%" %source%
TOC of the extracted CD
Track | Start | Length | Start sector | End sector
---------------------------------------------------------
1 | 0:00.00 | 11:39.21 | 0 | 52445
2 | 11:39.21 | 4:54.28 | 52446 | 74523
3 | 16:33.49 | 7:41.50 | 74524 | 109148
4 | 24:15.24 | 6:25.58 | 109149 | 138081
5 | 30:41.07 | 1:57.53 | 138082 | 146909
6 | 32:38.60 | 10:59.20 | 146910 | 196354
7 | 43:38.05 | 3:00.30 | 196355 | 209884
8 | 46:38.35 | 1:45.39 | 209885 | 217798
9 | 48:23.74 | 5:31.18 | 217799 | 242641
10 | 53:55.17 | 9:31.74 | 242642 | 285540
Track 1
Filename D:\2001.Emmanuelle Somer - Search For Peace\01. Danse a Cloche-Pied.wav
Pre-gap length 0:00:02.00
Peak level 95.5 %
Extraction speed 6.2 X
Track quality 100.0 %
Test CRC 770B77EA
Copy CRC 770B77EA
Accurately ripped (confidence 1) [8E5DB255] (AR v1)
Copy OK
Track 2
Filename D:\2001.Emmanuelle Somer - Search For Peace\02. Aurora Borealis.wav
Pre-gap length 0:00:02.00
Peak level 100.0 %
Extraction speed 6.9 X
Track quality 100.0 %
Test CRC 10D2BDF9
Copy CRC 10D2BDF9
Accurately ripped (confidence 1) [BAF8064C] (AR v1)
Copy OK
Track 3
Filename D:\2001.Emmanuelle Somer - Search For Peace\03. Search for Peace.wav
Pre-gap length 0:00:02.00
Peak level 70.0 %
Extraction speed 8.0 X
Track quality 100.0 %
Test CRC 6EBE214B
Copy CRC 6EBE214B
Accurately ripped (confidence 1) [EF928210] (AR v1)
Copy OK
Track 4
Filename D:\2001.Emmanuelle Somer - Search For Peace\04. Thanks.wav
Pre-gap length 0:00:02.00
Peak level 49.3 %
Extraction speed 8.0 X
Track quality 99.9 %
Test CRC 365A2563
Copy CRC 365A2563
Accurately ripped (confidence 1) [862AC162] (AR v1)
Copy OK
Track 5
Filename D:\2001.Emmanuelle Somer - Search For Peace\05. Seduction Dance.wav
Pre-gap length 0:00:02.00
Peak level 83.1 %
Extraction speed 7.5 X
Track quality 100.0 %
Test CRC 6D4CAB78
Copy CRC 6D4CAB78
Accurately ripped (confidence 1) [3541E403] (AR v1)
Copy OK
Track 6
Filename D:\2001.Emmanuelle Somer - Search For Peace\06. Stoned Tones.wav
Pre-gap length 0:00:02.00
Peak level 96.6 %
Extraction speed 10.0 X
Track quality 100.0 %
Test CRC 47DA0A6C
Copy CRC 47DA0A6C
Accurately ripped (confidence 1) [895EEFA4] (AR v1)
Copy OK
Track 7
Filename D:\2001.Emmanuelle Somer - Search For Peace\07. Struggle of an Eclosion.wav
Pre-gap length 0:00:02.00
Peak level 38.7 %
Extraction speed 9.2 X
Track quality 100.0 %
Test CRC 7D3257E7
Copy CRC 7D3257E7
Accurately ripped (confidence 1) [E0C336A2] (AR v1)
Copy OK
Track 8
Filename D:\2001.Emmanuelle Somer - Search For Peace\08. Duality.wav
Pre-gap length 0:00:02.00
Peak level 43.6 %
Extraction speed 8.5 X
Track quality 100.0 %
Test CRC BE60DC78
Copy CRC BE60DC78
Accurately ripped (confidence 1) [E001FBFA] (AR v1)
Copy OK
Track 9
Filename D:\2001.Emmanuelle Somer - Search For Peace\09. Tree in the Forest.wav
Pre-gap length 0:00:02.00
Peak level 100.0 %
Extraction speed 10.5 X
Track quality 100.0 %
Test CRC 12422E62
Copy CRC 12422E62
Accurately ripped (confidence 1) [8EA11005] (AR v1)
Copy OK
Track 10
Filename D:\2001.Emmanuelle Somer - Search For Peace\10. Union Treaty.wav
Pre-gap length 0:00:02.00
Peak level 96.6 %
Extraction speed 11.4 X
Track quality 100.0 %
Test CRC AD552E8B
Copy CRC AD552E8B
Accurately ripped (confidence 1) [9D6183A8] (AR v1)
Copy OK
All tracks accurately ripped
No errors occurred
End of status report
==== Log checksum 5AA7A723E0DA58489E5C5C975DBC595CC8F48C02E50372273C04CC6BE1E822E9 ====
 
Содержание индексной карты (.CUE)
REM GENRE Jazz
REM DATE 2001
REM DISCID 850EDF0A
REM COMMENT "ExactAudioCopy v1.0b3"
PERFORMER "Emmanuelle Somer"
TITLE "Search for Peace"
FILE "01. Danse a Cloche-Pied.wav" WAVE
TRACK 01 AUDIO
TITLE "Danse a Cloche-Pied"
PERFORMER "Emmanuelle Somer"
INDEX 01 00:00:00
TRACK 02 AUDIO
TITLE "Aurora Borealis"
PERFORMER "Emmanuelle Somer"
INDEX 00 11:37:21
FILE "02. Aurora Borealis.wav" WAVE
INDEX 01 00:00:00
TRACK 03 AUDIO
TITLE "Search for Peace"
PERFORMER "Emmanuelle Somer"
INDEX 00 04:52:28
FILE "03. Search for Peace.wav" WAVE
INDEX 01 00:00:00
TRACK 04 AUDIO
TITLE "Thanks"
PERFORMER "Emmanuelle Somer"
INDEX 00 07:39:50
FILE "04. Thanks.wav" WAVE
INDEX 01 00:00:00
TRACK 05 AUDIO
TITLE "Seduction Dance"
PERFORMER "Emmanuelle Somer"
INDEX 00 06:23:58
FILE "05. Seduction Dance.wav" WAVE
INDEX 01 00:00:00
TRACK 06 AUDIO
TITLE "Stoned Tones"
PERFORMER "Emmanuelle Somer"
INDEX 00 01:55:53
FILE "06. Stoned Tones.wav" WAVE
INDEX 01 00:00:00
TRACK 07 AUDIO
TITLE "Struggle of an Eclosion"
PERFORMER "Emmanuelle Somer"
INDEX 00 10:57:20
FILE "07. Struggle of an Eclosion.wav" WAVE
INDEX 01 00:00:00
TRACK 08 AUDIO
TITLE "Duality"
PERFORMER "Emmanuelle Somer"
INDEX 00 02:58:30
FILE "08. Duality.wav" WAVE
INDEX 01 00:00:00
TRACK 09 AUDIO
TITLE "Tree in the Forest"
PERFORMER "Emmanuelle Somer"
INDEX 00 01:43:39
FILE "09. Tree in the Forest.wav" WAVE
INDEX 01 00:00:00
TRACK 10 AUDIO
TITLE "Union Treaty"
PERFORMER "Emmanuelle Somer"
INDEX 00 05:29:18
FILE "10. Union Treaty.wav" WAVE
INDEX 01 00:00:00
 
Состав
Personnel:
Jonas Tauber - cello
Jarrod Cagwin - dr, perc.
Daniel Dunlap - b
Peter McCann - g
Tom Varner - french horn
Emmanuelle Somer - oboe, english horn, ss, Bcl, cl
Adam Butler - p, organ, dr, perc.
Peter Epstein - ss
Any questions -> support@pro-jazz.com. По всем вопросам пишите -> support@pro-jazz.com
23:51
156
Нет комментариев. Ваш будет первым!