Вы используете незарегистрированную версию компонента "Вкладки"!

Поиск

(Free Jazz, Avant-Garde Jazz) [CD] Talking Pictures (Ron Samworth, Peggy Lee, Bill Clark, Dylan Van Der Schyff) - The Mirror With A Memory - 1997, FLAC (tracks+.cue), lossless

(Free Jazz, Avant-Garde Jazz) [CD] Talking Pictures (Ron Samworth, Peggy Lee, Bill Clark, Dylan Van Der Schyff) - The Mirror With A Memory - 1997, FLAC (tracks+.cue), lossless
Треклист:
Talking Pictures / The Mirror With A Memory
Жанр: Free Jazz, Avant-Garde Jazz
Носитель: CD
Страна-производитель диска: Canada
Год издания: 1997
Издатель (лейбл): Red Toucan Records
Номер по каталогу: RT 9307-2
Страна: Canada
Аудиокодек: FLAC (*.flac)
Тип рипа: tracks+.cue
Битрейт аудио: lossless
Продолжительность: 66:58
Источник (релизер): свой фирменный диск
Наличие сканов в содержимом раздачи:
Треклист:
1. Commercial Free 1:02
2. The Real Professionals 9:52
3. Scratching The Surface 1:02
4. Big Secret 4:06
5. Butch 0:19
6. Cunningham In A Cage 3:46
7. Deep Pocket 8:04
8. NTT 0:30
9. A.M. 7:47
10. Shiny Stockhausen 4:09
11. Drool 11:43
12. Ligeti Western 13:55
13. Drumpets 0:30
 
Лог создания рипа
Exact Audio Copy V1.0 beta 3 from 29. August 2011
EAC extraction logfile from 15. February 2014, 22:53
Talking Pictures / The Mirror With A Memory
Used drive : PIONEER DVD-RW DVR-115D Adapter: 0 ID: 0
Read mode : Secure
Utilize accurate stream : Yes
Defeat audio cache : Yes
Make use of C2 pointers : No
Read offset correction : 48
Overread into Lead-In and Lead-Out : No
Fill up missing offset samples with silence : Yes
Delete leading and trailing silent blocks : No
Null samples used in CRC calculations : Yes
Used interface : Installed external ASPI interface
Gap handling : Appended to previous track
Used output format : User Defined Encoder
Selected bitrate : 896 kBit/s
Quality : High
Add ID3 tag : No
Command line compressor : C:\Program Files\Exact Audio Copy\FLAC\FLAC.EXE
Additional command line options : -6 -V -T "ARTIST=%artist%" -T "TITLE=%title%" -T "ALBUM=%albumtitle%" -T "DATE=%year%" -T "TRACKNUMBER=%tracknr%" -T "GENRE=%genre%" -T "COMMENT=%comment%" -T "BAND=%albuminterpret%" -T "COMPOSER=%composer%" %haslyrics%--tag-from-file=LYRICS="%lyricsfile%"%haslyrics% -T "DISCNUMBER=%cdnumber%" -T "TOTALDISCS=%totalcds%" -T "TOTALTRACKS=%numtracks%" %hascover%--picture="%coverfile%"%hascover% %source% -o %dest%
TOC of the extracted CD
Track | Start | Length | Start sector | End sector
---------------------------------------------------------
1 | 0:00.00 | 1:02.05 | 0 | 4654
2 | 1:02.05 | 9:51.50 | 4655 | 49029
3 | 10:53.55 | 1:02.00 | 49030 | 53679
4 | 11:55.55 | 4:06.10 | 53680 | 72139
5 | 16:01.65 | 0:19.55 | 72140 | 73619
6 | 16:21.45 | 3:44.65 | 73620 | 90484
7 | 20:06.35 | 8:03.65 | 90485 | 126774
8 | 28:10.25 | 0:30.60 | 126775 | 129084
9 | 28:41.10 | 7:55.15 | 129085 | 164724
10 | 36:36.25 | 4:08.05 | 164725 | 183329
11 | 40:44.30 | 11:45.45 | 183330 | 236249
12 | 52:30.00 | 13:53.27 | 236250 | 298751
13 | 66:23.27 | 0:35.03 | 298752 | 301379
Track 1
Filename D:\zzz\01 - Commercial Free.wav
Pre-gap length 0:00:02.00
Peak level 61.4 %
Extraction speed 2.2 X
Track quality 99.8 %
Test CRC AC28E456
Copy CRC AC28E456
Accurately ripped (confidence 1) [0A5DEA1B] (AR v2)
Copy OK
Track 2
Filename D:\zzz\02 - The Real Professionals.wav
Peak level 100.0 %
Extraction speed 5.3 X
Track quality 100.0 %
Test CRC 254B611F
Copy CRC 254B611F
Accurately ripped (confidence 1) [322FEFC5] (AR v2)
Copy OK
Track 3
Filename D:\zzz\03 - Scratching The Surface.wav
Pre-gap length 0:00:00.40
Peak level 64.2 %
Extraction speed 3.9 X
Track quality 100.0 %
Test CRC 4AAF820F
Copy CRC 4AAF820F
Accurately ripped (confidence 1) [EFD9B1D4] (AR v2)
Copy OK
Track 4
Filename D:\zzz\04 - Big Secret.wav
Peak level 98.8 %
Extraction speed 5.6 X
Track quality 100.0 %
Test CRC B7A91CF3
Copy CRC B7A91CF3
Accurately ripped (confidence 1) [07EAEB90] (AR v2)
Copy OK
Track 5
Filename D:\zzz\05 - Butch.wav
Peak level 40.7 %
Extraction speed 2.4 X
Track quality 100.0 %
Test CRC 34FF9DCA
Copy CRC 34FF9DCA
Accurately ripped (confidence 1) [21BBABC9] (AR v2)
Copy OK
Track 6
Filename D:\zzz\06 - Cunningham In A Cage.wav
Peak level 72.5 %
Extraction speed 5.9 X
Track quality 100.0 %
Test CRC 4DF2E193
Copy CRC 4DF2E193
Accurately ripped (confidence 1) [9B783906] (AR v2)
Copy OK
Track 7
Filename D:\zzz\07 - Deep Pocket.wav
Peak level 100.0 %
Extraction speed 6.9 X
Track quality 100.0 %
Test CRC E845D965
Copy CRC E845D965
Accurately ripped (confidence 1) [2A4968B4] (AR v2)
Copy OK
Track 8
Filename D:\zzz\08 - NTT.wav
Peak level 28.9 %
Extraction speed 3.5 X
Track quality 100.0 %
Test CRC 13F121CD
Copy CRC 13F121CD
Accurately ripped (confidence 1) [9B092F3C] (AR v2)
Copy OK
Track 9
Filename D:\zzz\09 - A.M..wav
Peak level 99.6 %
Extraction speed 7.4 X
Track quality 100.0 %
Test CRC 2C256B7E
Copy CRC 2C256B7E
Accurately ripped (confidence 1) [CC38CB36] (AR v2)
Copy OK
Track 10
Filename D:\zzz\10 - Shiny Stockhausen.wav
Peak level 76.5 %
Extraction speed 7.3 X
Track quality 100.0 %
Test CRC 25741090
Copy CRC 25741090
Accurately ripped (confidence 1) [AA07655D] (AR v2)
Copy OK
Track 11
Filename D:\zzz\11 - Drool.wav
Pre-gap length 0:00:05.53
Peak level 100.0 %
Extraction speed 8.4 X
Track quality 100.0 %
Test CRC 2673E4E1
Copy CRC 2673E4E1
Accurately ripped (confidence 1) [5725D75D] (AR v2)
Copy OK
Track 12
Filename D:\zzz\12 - Ligeti Western.wav
Peak level 100.0 %
Extraction speed 9.2 X
Track quality 100.0 %
Test CRC B6432CB6
Copy CRC B6432CB6
Accurately ripped (confidence 1) [36175ED9] (AR v2)
Copy OK
Track 13
Filename D:\zzz\13 - Drumpets.wav
Peak level 52.2 %
Extraction speed 4.8 X
Track quality 100.0 %
Test CRC 6A07A378
Copy CRC 6A07A378
Accurately ripped (confidence 1) [6088B68C] (AR v2)
Copy OK
All tracks accurately ripped
No errors occurred
End of status report
==== Log checksum 681477BC4251CBDED1185DEA61E92AF01279B8938F78177B44743E45FB471327 ====
 
Содержание индексной карты (.CUE)
REM GENRE "Avant-Garde Jazz"
REM DATE 1997
REM DISCID C30FB20D
REM COMMENT "ExactAudioCopy v1.0b3"
PERFORMER "Talking Pictures"
TITLE "The Mirror With A Memory"
FILE "01 - Commercial Free.wav" WAVE
TRACK 01 AUDIO
TITLE "Commercial Free"
PERFORMER "Talking Pictures"
INDEX 01 00:00:00
FILE "02 - The Real Professionals.wav" WAVE
TRACK 02 AUDIO
TITLE "The Real Professionals"
PERFORMER "Talking Pictures"
INDEX 01 00:00:00
TRACK 03 AUDIO
TITLE "Scratching The Surface"
PERFORMER "Talking Pictures"
INDEX 00 09:51:10
FILE "03 - Scratching The Surface.wav" WAVE
INDEX 01 00:00:00
FILE "04 - Big Secret.wav" WAVE
TRACK 04 AUDIO
TITLE "Big Secret"
PERFORMER "Talking Pictures"
INDEX 01 00:00:00
FILE "05 - Butch.wav" WAVE
TRACK 05 AUDIO
TITLE "Butch"
PERFORMER "Talking Pictures"
INDEX 01 00:00:00
FILE "06 - Cunningham In A Cage.wav" WAVE
TRACK 06 AUDIO
TITLE "Cunningham In A Cage"
PERFORMER "Talking Pictures"
INDEX 01 00:00:00
FILE "07 - Deep Pocket.wav" WAVE
TRACK 07 AUDIO
TITLE "Deep Pocket"
PERFORMER "Talking Pictures"
INDEX 01 00:00:00
FILE "08 - NTT.wav" WAVE
TRACK 08 AUDIO
TITLE "NTT"
PERFORMER "Talking Pictures"
INDEX 01 00:00:00
FILE "09 - A.M..wav" WAVE
TRACK 09 AUDIO
TITLE "A.M."
PERFORMER "Talking Pictures"
INDEX 01 00:00:00
FILE "10 - Shiny Stockhausen.wav" WAVE
TRACK 10 AUDIO
TITLE "Shiny Stockhausen"
PERFORMER "Talking Pictures"
INDEX 01 00:00:00
TRACK 11 AUDIO
TITLE "Drool"
PERFORMER "Talking Pictures"
INDEX 00 04:02:27
FILE "11 - Drool.wav" WAVE
INDEX 01 00:00:00
FILE "12 - Ligeti Western.wav" WAVE
TRACK 12 AUDIO
TITLE "Ligeti Western"
PERFORMER "Talking Pictures"
INDEX 01 00:00:00
FILE "13 - Drumpets.wav" WAVE
TRACK 13 AUDIO
TITLE "Drumpets"
PERFORMER "Talking Pictures"
INDEX 01 00:00:00
 
Лог проверки качества
d:\>d:\aucdtect -d/-m0 d:\zzz\*.wav
auCDtect: CD records authenticity detector, version 0.8.2
Copyright (c) 2004 Oleg Berngardt. All rights reserved.
Copyright (c) 2004 Alexander Djourik. All rights reserved.
------------------------------------------------------------
Processing file: [01. Commercial Free.wav]
------------------------------------------------------------
This track looks like CDDA with probability 100%
------------------------------------------------------------
Processing file: [02. The Real Professionals.wav]
------------------------------------------------------------
This track looks like CDDA with probability 100%
------------------------------------------------------------
Processing file: [03. Scratching The Surface.wav]
------------------------------------------------------------
This track looks like CDDA with probability 100%
------------------------------------------------------------
Processing file: [04. Big Secret.wav]
------------------------------------------------------------
This track looks like CDDA with probability 99%
------------------------------------------------------------
Processing file: [05. Butch.wav]
------------------------------------------------------------
This track looks like MPEG with probability 100%
------------------------------------------------------------
Processing file: [06. Cunningham In A Cage.wav]
------------------------------------------------------------
This track looks like CDDA with probability 100%
------------------------------------------------------------
Processing file: [07. Deep Pocket.wav]
------------------------------------------------------------
This track looks like CDDA with probability 100%
------------------------------------------------------------
Processing file: [08. NTT.wav]
------------------------------------------------------------
This track looks like CDDA with probability 43%
------------------------------------------------------------
Processing file: [09. A.M..wav]
------------------------------------------------------------
This track looks like CDDA with probability 100%
------------------------------------------------------------
Processing file: [10. Shiny Stockhausen.wav]
------------------------------------------------------------
This track looks like CDDA with probability 100%
------------------------------------------------------------
Processing file: [11. Drool.wav]
------------------------------------------------------------
This track looks like CDDA with probability 100%
------------------------------------------------------------
Processing file: [12. Ligeti Western.wav]
------------------------------------------------------------
This track looks like CDDA with probability 100%
------------------------------------------------------------
Processing file: [13. Drumpets.wav]
------------------------------------------------------------
This track looks like CDDA with probability 100%
------------------------------------------------------------
Final Conclusion:
------------------------------------------------------------
Could not qualify the source of these tracks.
Доп. информация:
 
Album Info & AMG Review
(quartet) - 1,3,5,6,8,10,13
(Ron Samworth) - 2,4,7,11
(Bill Clark) - 9,12
7. is dedicated to Don Cherry
"It goes without saying that dissonances and noises are welcome in this new music. But so is the dominant seventh chord if it happens to put in an appearance." - John Cage
Produced by Ron Samworth
Recorded June 16-18, 1996 at Say-Watt Studio
Recorded by Dave Say
Mixing, editing and mastering by Patric Caird
Design by Hanif Jan Mohamed - Avanzi Design
Photos by Neil (Geat) Taylor
Collage elements by Dylan Van Der Schyff
Computor editing by Rejean Gilbert
Executive producers: Michel Passaretti, Guy Chouinard
Recorded a year after Ciao Bella, The Mirror With a Memory takes the ideas presented in Talking Pictures' first CD and brings them to a fruitful conclusion. Ron Samworth's quartet uses the same recipe of short collective improvisations alternating with avant-garde jazz compositions. This time around, the written pieces tend to include more pockets of improvisation and rely less on tonal heads. The album is therefore less "listener friendly," but gains a stronger artistic proposition, making it the kind of CD one comes back to regularly with ever-renewed pleasure. "The Real Professionals" is a three-part piece of jazz-rock-gone-free madness, ending on a solid riff in 6/4. It recalls once again the playful avant-garde jazz of Jean Derome et les Dangereux Zhoms and René Lussier's late-'80s/early-'90s projects. On "Drool," guitarist Samworth forays into the classical references made available by Peggy Lee's cello. As on the previous album, most of the compositions are penned by the leader, except for two by trumpeter Bill Clark. His "Ligeti Western" is the unlikely conjunction of the Hungarian composer and Ennio Morricone's worlds. Both camps are represented by cello and trumpet respectively in this tragicomic tour de force. A must-have for the avant-garde jazz fan, The Mirror With a Memory marks the pinnacle of Talking Pictures' creative years, since afterwards the group will only remain active as an interpretation unit, its members pouring their creative forces into their own projects.
 
Состав
Ron Samworth: guitar, effects
Peggy Lee: cello
Bill Clark: trumpet
Dylan Van Der Schyff: percussion, tape manipulation
Any questions -> support@pro-jazz.com. По всем вопросам пишите -> support@pro-jazz.com
23:52
224
Нет комментариев. Ваш будет первым!