Поиск

(afrobeat/funk) Fela (Anikulapo Kuti) - Stalemate 1977 & Fear Not for Man 1977 - 2 LPs in 1 CD - 1999, FLAC (tracks+.cue), lossless

(afrobeat/funk) Fela (Anikulapo Kuti) - Stalemate 1977 & Fear Not for Man 1977 - 2 LPs in 1 CD - 1999, FLAC (tracks+.cue), lossless
Треклист:
Fela (Anikulapo Kuti) - Stalemate 1977 & Fear Not for Man 1977 - 2 LPs in 1 CD
Жанр: afrobeat/funk
Год выпуска диска: 1999
Производитель диска: Universal (Germany)
Аудио кодек: FLAC
Тип рипа: tracks+.cue
Битрейт аудио: lossless
Продолжительность: 00 : 58 : 09
Трэклист:
1. Stalemate
2. Don't Worry About Mu Mouth O (African Message)
3. Fear Not for Man
4. Palm Wine Sound - (TRUE instrumental)
Доп. информация: рип сделан с оригинального cd из моей коллекции .
 
скрытый текст
Exact Audio Copy V0.99 prebeta 5 from 4. May 2009
Отчёт EAC об извлечении, выполненном 22. марта 2010, 5:48
Fela (Anikulapo Kuti) / Stalemate 1977/ Fear Not For Man 1977
Дисковод: SONY DVD RW DRX-S70U Adapter: 2 ID: 0
Режим чтения : Достоверность
Использование точного потока : Да
Отключение кэша аудио : Да
Использование указателей C2 : Нет
Коррекция смещения при чтении : 48
Способность читать области Lead-in и Lead-out : Нет
Заполнение пропущенных сэмплов тишиной : Да
Удаление блоков с тишиной в начале и конце : Нет
При вычислениях CRC использовались нулевые сэмплы : Да
Интерфейс : Встроенный Win32-интерфейс для Win NT/2000
Обработка зазоров : Добавлено к предыдущему треку
Выходной формат : Пользовательский кодировщик
Выбранный битрейт : 768 kBit/s
Качество : Высокий
Добавление ID3-тэга : Нет
Утилита сжатия : C:\Program Files\Exact Audio Copy\FLAC\FLAC.EXE
Дополнительные параметры : -6 -V -T "ARTIST=%a" -T "TITLE=%t" -T "ALBUM=%g" -T "DATE=%y" -T "TRACKNUMBER=%n" -T "GENRE=%m" -T "COMMENT=%e" %s -o %d
TOC извлечённого CD
Трек | Старт | Длительность | Начальный сектор | Конечный сектор
---------------------------------------------------------------------
1 | 0:00.00 | 12:54.67 | 0 | 58116
2 | 12:54.67 | 15:44.18 | 58117 | 128934
3 | 28:39.10 | 14:14.25 | 128935 | 193009
4 | 42:53.35 | 15:16.37 | 193010 | 261746
Трек 1
Имя файла d:\My Documents\FELA\01.Fela (Anikulapo Kuti)-Stalemate.wav
Длина предзазора 0:00:02.00
Пиковый уровень 99.9 %
Качество трека 99.8 %
CRC теста B72DDBA7
CRC копии B72DDBA7
Точное извлечение (достоверность 1) [70A3865E]
Копирование... OK
Трек 2
Имя файла d:\My Documents\FELA\02.Fela (Anikulapo Kuti)-Don`t Worry About My Mouth O (African Message).wav
Длина предзазора 0:00:01.66
Пиковый уровень 99.9 %
Качество трека 100.0 %
CRC теста DB8A37A3
CRC копии DB8A37A3
Точное извлечение (достоверность 1) [B0372005]
Копирование... OK
Трек 3
Имя файла d:\My Documents\FELA\03.Fela (Anikulapo Kuti)-Fear Not for Man.wav
Длина предзазора 0:00:01.64
Пиковый уровень 99.9 %
Качество трека 100.0 %
CRC теста AD042FB2
CRC копии AD042FB2
Точное извлечение (достоверность 1) [FB576EEB]
Копирование... OK
Трек 4
Имя файла d:\My Documents\FELA\04.Fela (Anikulapo Kuti)-Palm Wine Sound.wav
Длина предзазора 0:00:02.13
Пиковый уровень 98.6 %
Качество трека 99.9 %
CRC теста 199CD580
CRC копии 199CD580
Точное извлечение (достоверность 1) [172D4A7A]
Копирование... OK
Все треки извлечены точно
Ошибок не произошло
Конец отчёта
 
скрытый текст
AUDIOCHECKER v2.0 beta (build 457) - by Dester - opdester@freemail.hu
~~~~~~~~~~~~~~~~~~~~~~~~~~~~~~~~~~
-=== DO NOT EDIT THIS FILE! ===-
Путь: ...\FELA
1 -=- 01.Fela (Anikulapo Kuti)-Stalemate.flac -=- CDDA (100%)
2 -=- 02.Fela (Anikulapo Kuti)-Don`t Worry About My Mouth O (African Message).flac -=- CDDA (100%)
3 -=- 03.Fela (Anikulapo Kuti)-Fear Not for Man.flac -=- CDDA (100%)
4 -=- 04.Fela (Anikulapo Kuti)-Palm Wine Sound.flac -=- CDDA (100%)
Сводка 100,00% CDDA
193547988
 
скрытый текст
REM GENRE Funk
REM DATE 1997
REM DISCID 340DA104
REM COMMENT "ExactAudioCopy v0.99pb5"
PERFORMER "Fela (Anikulapo Kuti)"
TITLE "Stalemate 1977/ Fear Not For Man 1977"
FILE "01.Fela (Anikulapo Kuti)-Stalemate.wav" WAVE
TRACK 01 AUDIO
TITLE "Stalemate"
PERFORMER "Fela (Anikulapo Kuti)"
INDEX 01 00:00:00
TRACK 02 AUDIO
TITLE "Don`t Worry About My Mouth O (African Message)"
PERFORMER "Fela (Anikulapo Kuti)"
INDEX 00 12:53:17
FILE "02.Fela (Anikulapo Kuti)-Don`t Worry About My Mouth O (African Message).wav" WAVE
INDEX 01 00:00:00
TRACK 03 AUDIO
TITLE "Fear Not for Man"
PERFORMER "Fela (Anikulapo Kuti)"
INDEX 00 15:42:45
FILE "03.Fela (Anikulapo Kuti)-Fear Not for Man.wav" WAVE
INDEX 01 00:00:00
TRACK 04 AUDIO
TITLE "Palm Wine Sound"
PERFORMER "Fela (Anikulapo Kuti)"
INDEX 00 14:12:15
FILE "04.Fela (Anikulapo Kuti)-Palm Wine Sound.wav" WAVE
INDEX 01 00:00:00
14:39
280
Нет комментариев. Ваш будет первым!