Поиск

(Bossa Nova/Brazilian Jazz) Erasmo Carlos - Erasmo Carlos Convida - 1980, FLAC (image+.cue), lossless

Треклист:
Erasmo Carlos - Erasmo Carlos Convida
Жанр: Bossa Nova/Brazilian Jazz
Год выпуска диска: 1980
Производитель диска: Polydor - Brazil
Источник: My CD
Аудио кодек: FLAC
Тип рипа: image+.cue
Битрейт аудио: lossless
Продолжительность: 49:58
Трэклист:
01 - Sentado A Beira Do Caminho (5:33) featuring Roberto Carlos
02 - Detalhes (5:02) featuring Gal Costa
03 - Alem Do Horizonte (4:07) featuring Tim Maia
04 - Mane Joao (4:07) featuring Gilberto Gil
05 - Minha Fama De Mau (3:13) featuring Rita Lee
06 - Sou Uma Crianca Nao Entendo Nada (2:10) featuring A Cor Do Som
07 - Cavalgada (4:30) featuring Maria Bethania
08 - Quero Que Va Tudo Pro Inferno (5:39) featuring Caetano Veloso
09 - O Comilao (4:35) featuring Jorge Ben
10 - Cafe Da Manha (3:24) featuring Nara Leao
11 - Na Paz Do Seu Sorriso (3:51) featuring Wanderlea
12 - Se Voce Pensa (3:21) featuring As Freneticas
 
Info
This is Erasmo Carlos - Convida (1980), for Polydor, Bringing twelve Erasmo Carlos compositions, most of them written in partnership with Roberto Carlos. Together, the duo forms one of the most successful composer partnerships of Brazilian popular music. Roberto Carlos opens the show and is followed by renowned artists, with some others that were in evidence only on that period; such like As Freneticas and A Cor do Som. This is a solid and really pleasant listen that has been out of print for many years.
THE SPECIAL GUESTS
A Cor do Som
As Freneticas
Caetano Veloso
Gal Costa
Gilberto Gil
Jorge Ben
Maria Bethania
Nara Leao
Rita Lee
Roberto Carlos
Tim Maia
Wanderleia
 
EAC Log
Exact Audio Copy V0.99 prebeta 5 from 4. May 2009
EAC extraction logfile from 6. March 2010, 21:00
Erasmo Carlos / Erasmo Carlos Convida
Used drive : HL-DT-STDVDRAM GH20NS15 Adapter: 0 ID: 0
Read mode : Secure
Utilize accurate stream : Yes
Defeat audio cache : Yes
Make use of C2 pointers : No
Read offset correction : 667
Overread into Lead-In and Lead-Out : No
Fill up missing offset samples with silence : Yes
Delete leading and trailing silent blocks : No
Null samples used in CRC calculations : Yes
Used interface : Installed external ASPI interface
Used output format : User Defined Encoder
Selected bitrate : 1024 kBit/s
Quality : High
Add ID3 tag : No
Command line compressor : C:\Program Files\Exact Audio Copy\Flac\flac.exe
Additional command line options : -8 -A tukey(0.25) -A gauss(0.1875) -b 4096 -V -T "artist=%a" -T "title=%t" -T "album=%g" -T "date=%y" -T "tracknumber=%n" -T "genre=%m" %s --sector-align
TOC of the extracted CD
Track | Start | Length | Start sector | End sector
---------------------------------------------------------
1 | 0:00.00 | 5:35.21 | 0 | 25145
2 | 5:35.21 | 5:04.41 | 25146 | 47986
3 | 10:39.62 | 4:09.31 | 47987 | 66692
4 | 14:49.18 | 4:09.18 | 66693 | 85385
5 | 18:58.36 | 3:15.52 | 85386 | 100062
6 | 22:14.13 | 2:12.58 | 100063 | 110020
7 | 24:26.71 | 4:32.30 | 110021 | 130450
8 | 28:59.26 | 5:41.28 | 130451 | 156053
9 | 34:40.54 | 4:37.18 | 156054 | 176846
10 | 39:17.72 | 3:26.41 | 176847 | 192337
11 | 42:44.38 | 3:53.06 | 192338 | 209818
12 | 46:37.44 | 3:21.09 | 209819 | 224902
Range status and errors
Selected range
Filename D:\Torrents.ru\Erasmo Carlos\Erasmo Carlos - Erasmo Carlos Convida\Erasmo Carlos - Erasmo Carlos Convida.wav
Peak level 92.2 %
Range quality 99.9 %
Test CRC BC2BF0E5
Copy CRC BC2BF0E5
Copy OK
No errors occurred
End of status report
 
Audiochecker
AUDIOCHECKER v2.0 beta (build 457) - by Dester - opdester@freemail.hu
~~~~~~~~~~~~~~~~~~~~~~~~~~~~~~~~~~
-=== DO NOT EDIT THIS FILE! ===-
Path: ...\Erasmo Carlos - Erasmo Carlos Convida
1 -=- Erasmo Carlos - Erasmo Carlos Convida.flac -=- CDDA (99%)
227161492
13:40
481
Нет комментариев. Ваш будет первым!