Поиск

(Bossa Nova/Brazilian Jazz/Vocal Jazz) Emilio Santiago - Feito Para Ouvir - 1977, FLAC (image+.cue), lossless

Треклист:
Emilio Santiago - Feito Para Ouvir
Жанр: Bossa Nova/Brazilian Jazz/Vocal Jazz
Год выпуска диска: 1977
Производитель диска: Philips (Phonogram) - 6349.319 - Brazil
Источник: My CD
Аудио кодек: FLAC
Тип рипа: image+.cue
Битрейт аудио: lossless
Продолжительность: 39:22
Трэклист:
01 - Beijo Partido (4:41)
02 - Maria (2:25)
03 - Ponto Final (3:30)
04 - O Que E Amar (2:46)
05 - Última Forma (3:17)
06 - Tristeza De Nos Dois (2:58)
07 - Rua Deserta (4:25)
08 - Mentiras (4:58)
09 - Se Pelo Menos Voce Fosse Minha (2:34)
10 - E Agora (O Que Faço Pra Esquecer) (3:26)
11 - Olha Maria (3:57)
 
Scans
 
Info
This is Emilio Santiago - Feito para Ouvir (1977), for Philips, featuring Emilio Santiago on his early and acclaimed initial career LPs. It is the third album recorded by Emilio Santiago and according to specialists, landmarks the end of his best years before making his commercially oriented releases. Philips made a great job providing personnel information at the back cover, and we have a constellation of Brazilian musicians in this session.
Personnel
J.T. Meirelles
(arrangements, flute, sax)
Laercio de Freitas
(arrangements, piano, eletric piano)
Luizao
(electric bass)
Sergio Barrozo
(acoustic bass)
Ary Piassarollo, Luiz Claudio Ramos
(guitar, violao)
Nelsinho, Zequinha
(drums)
Roberto Menescal
(repertorie selection)
 
EAC Лог
Exact Audio Copy V0.99 prebeta 5 from 4. May 2009
EAC extraction logfile from 6. March 2010, 19:15
Emilio Santiago / Feito Para Ouvir
Used drive : HL-DT-STDVDRAM GH20NS15 Adapter: 0 ID: 0
Read mode : Secure
Utilize accurate stream : Yes
Defeat audio cache : Yes
Make use of C2 pointers : No
Read offset correction : 667
Overread into Lead-In and Lead-Out : No
Fill up missing offset samples with silence : Yes
Delete leading and trailing silent blocks : No
Null samples used in CRC calculations : Yes
Used interface : Installed external ASPI interface
Used output format : User Defined Encoder
Selected bitrate : 1024 kBit/s
Quality : High
Add ID3 tag : No
Command line compressor : C:\Program Files\Exact Audio Copy\Flac\flac.exe
Additional command line options : -8 -A tukey(0.25) -A gauss(0.1875) -b 4096 -V -T "artist=%a" -T "title=%t" -T "album=%g" -T "date=%y" -T "tracknumber=%n" -T "genre=%m" %s --sector-align
TOC of the extracted CD
Track | Start | Length | Start sector | End sector
---------------------------------------------------------
1 | 0:00.00 | 4:43.29 | 0 | 21253
2 | 4:43.29 | 2:27.40 | 21254 | 32318
3 | 7:10.69 | 3:32.72 | 32319 | 48290
4 | 10:43.66 | 2:48.20 | 48291 | 60910
5 | 13:32.11 | 3:19.23 | 60911 | 75858
6 | 16:51.34 | 3:00.09 | 75859 | 89367
7 | 19:51.43 | 4:27.65 | 89368 | 109457
8 | 24:19.33 | 5:00.23 | 109458 | 131980
9 | 29:19.56 | 2:36.47 | 131981 | 143727
10 | 31:56.28 | 3:28.35 | 143728 | 159362
11 | 35:24.63 | 3:57.64 | 159363 | 177201
Range status and errors
Selected range
Filename D:\Torrents.ru\Emílio Santiago\Emilio Santiago - Feito Para Ouvir\Emilio Santiago - Feito Para Ouvir.wav
Peak level 100.0 %
Range quality 100.0 %
Test CRC 1FBE7026
Copy CRC 1FBE7026
Copy OK
No errors occurred
End of status report
 
Audiochecker
AUDIOCHECKER v2.0 beta (build 457) - by Dester - opdester@freemail.hu
~~~~~~~~~~~~~~~~~~~~~~~~~~~~~~~~~~
-=== DO NOT EDIT THIS FILE! ===-
Path: ...\Emilio Santiago - Feito Para Ouvir
1 -=- Emilio Santiago - Feito Para Ouvir.flac -=- CDDA (100%)
34895412
14:39
317
Нет комментариев. Ваш будет первым!